Welcome Guest ( Log In | Register )

> Metalsteel - Beyond The Stars (2017), Heavy Metal (D5)
post Dec 7 2017, 13:22:04
Post #1

Serial Uploader
Group Icon
Group: V.I.P
Posts: 32,737
Releases: 31035
From: Lithuania
On Forums: 10 years 2 weeks
Thanks: 355815 time(s)
Lithuania


(IMG:https://metalarea.org/images/audiocovers/2017_Dec/acov_tid298925_thumb.jpg)

*Artist: Metalsteel
*Album: Beyond The Stars
*Year: 2017
*Genre: Heavy Metal
*Country: Slovenia (IMG:https://metalarea.org/forum/style_images/flags/Slovenia.png)
*Format: mp3@CBR320kbps
*Size: 87MB

Tracklist:
01. Lama Rabi Alardi Dini Endavur Esa Kunis Alim
02. Transhuman
03. Anu
04. The Council of 9
05. Stargods
06. Beyond the Stars
07. Vrillon
08. Materialist No More
09. Astral Traveller
10. The End of the World
******************************
Total playing time: 41:40

(IMG:https://metalarea.org/images/myspace.png)



Technical info
(IMG:https://metalarea.org/images/spectrogram/2017_Dec/23310a33582f65da27f63eae00a1e252.png)
Input File: 02. Transhuman.mp3
Channels : 2
Sample Rate : 44100
Precision : 16-bit
Duration : 00:03:50.76 = 10176692 samples = 17307.3 CDDA sectors
File Size : 9.31M
Bit Rate : 323k
Sample Encoding: MPEG audio (layer I, II or III)
Comments :
Title=Transhuman
Artist=Metalsteel
Album=Beyond the Stars
Tracknumber=2/10
Year=2017
Genre=9
Discnumber=1/1



Register

Register


Go to the top of the page
  Insert nick Quick quote
+Quote Post
 
Start new topic
Replies (1 - 3)
post Dec 7 2017, 14:33:00
Post #2

...
Group Icon
Group: S-moderation team
Posts: 6,236
Releases: 1276
On Forums: 7 years 3 months
Thanks: 31617 time(s)
Croatia


Added links by aesteticvice
Go to the top of the page
  Insert nick Quick quote
+Quote Post
post Dec 7 2017, 14:51:10
Post #3

Наливай!
**************
Group: Металариец
Posts: 5,028
Releases: 27
From: Москва-Бибирево
On Forums: 10 years 3 months
Thanks: 2334 time(s)
Russian Federation


Go to the top of the page
  Insert nick Quick quote
+Quote Post
post Dec 11 2017, 16:01:12
Post #4

Перевозчик
**************
Group: Металариец
Posts: 2,726
Releases: 0
On Forums: 9 years 11 months
Thanks: 550 time(s)
Russian Federation


Из примечательного в группе только девушка за барабанной установкой. Остальное - серость и скука.
Go to the top of the page
  Insert nick Quick quote
+Quote Post

Reply to this topicStart new topic
1 User(s) are reading this topic (1 Guests and 0 Anonymous Users)
0 Members:

 



- Lo-Fi Version Support form
Copyrights and abuse reports form
Time is now: 25th June 2018 - 08:32:20