Welcome Guest ( Log In | Register )

> Thaw - Grains (2017), Atmospheric Black Metal/Ambient
post Dec 7 2017, 13:33:59
Post #1

Аннигилятор пивА
Group Icon
Group: V.I.P
Posts: 46,651
Releases: 14002
From: Koenigsberg - TILZIT
On Forums: 11 years 10 months
Thanks: 310007 time(s)
Russian Federation


(IMG:https://metalarea.org/images/audiocovers/2017_Dec/acov_tid298928_thumb.jpg)

*Artist: Thaw
*Album: Grains
*Year: 2017
*Genre: Atmospheric Black Metal/Ambient
*Country: Poland (IMG:https://metalarea.org/forum/style_images/flags/Poland.png)
*Format: mp3@CBR320kbps
*Size: 87MB

Tracklist:
01. The Brigand
02. The Thief
03. The Cabalist
04. The Harness
05. Wielki Piec
******************************
Total playing time: 37:34




Extended info
M. - Bass, Vocals (Zgliszcza, ex-Forge of Clouds)
A. - Bass, Guitars, Noise (Furia, Mentor, AR, Arrm, Moral Breach, Sun for Miles, Zgliszcza, ex-Guantanamo Party Program, ex-Bad Side of Social Existence, ex-Bhimal, ex-Caught in a Trap, ex-Nyshynga, ex-Shaping the Random, ex-Void 1, ex-wSzaniec, ex-Tides from Nebula)
Krzysztof Kurek - Guitars (Sun for Miles)
P. - Noise (Mentor, Sun for Miles, ex-Searching for Calm)
Macio Moretti - Drums (2016-present) See also: Baaba, Mitch & Mitch, Łoskot, ex-Antigama, ex-Bassisters Orchestra, ex-Shofar, ex-Starzy Singers


Technical info
(IMG:https://metalarea.org/images/spectrogram/2017_Dec/e9fc5fe8c6aebc08c865098bf5ad34c1.png)
Input File: 1 - Thaw - The Brigand.mp3
Channels : 2
Sample Rate : 44100
Precision : 16-bit
Duration : 00:05:29.14 = 14515250 samples = 24685.8 CDDA sectors
File Size : 13.3M
Bit Rate : 323k
Sample Encoding: MPEG audio (layer I, II or III)
Comments :
Title=The Brigand
Artist=Thaw
Album=Grains
Tracknumber=1/5
Year=2017



Register


Вернуться к началу страницы
  Insert nick Quick quote
+Цитировать сообщение
 
Создать новую тему
Replies (1 - 4)
post Dec 7 2017, 21:51:25
Post #2

Group: Подсевший
Posts: 13
Releases: 0
From: Belarus
On Forums: 4 years 2 months
Thanks: 0 time(s)
Unknown


Вернуться к началу страницы
  Insert nick Quick quote
+Цитировать сообщение
post Dec 19 2017, 06:18:51
Post #3

стазис эпидерсис
***********
Group: Металариец
Posts: 1,709
Releases: 0
On Forums: 2 years 2 months
Thanks: 1044 time(s)
Unknown


Что то совсем не айс экспериментального наворотили, а вернее - на коленке наиграли.
Вернуться к началу страницы
  Insert nick Quick quote
+Цитировать сообщение
post Dec 19 2017, 06:56:37
Post #4

напряжный чувак (с)
***********
Group: Металариец
Posts: 1,745
Releases: 21
From: Киев
On Forums: 11 years 2 months
Thanks: 2262 time(s)
Ukraine


ЦИТАТА(garmonbozia @ Dec 19 2017, 07:18:51) *
Что то совсем не айс экспериментального наворотили, а вернее - на коленке наиграли.

+1.
Вернуться к началу страницы
  Insert nick Quick quote
+Цитировать сообщение
post Feb 21 2018, 15:32:18
Post #5

Правь статус, ####!111
**************
Group: Металариец
Posts: 2,514
Releases: 1
From: Рейх
On Forums: 11 years 8 months
Thanks: 646 time(s)
Ukraine


что то музыки мало стало. прошлые лучше
Вернуться к началу страницы
  Insert nick Quick quote
+Цитировать сообщение

ОтветитьСоздать новую тему
2 User(s) are reading this topic (2 Guests and 0 Anonymous Users)
0 Members:

 



- Lo-Fi Version Support form
Copyrights and abuse reports form
Time is now: 22nd April 2018 - 00:00:38