Welcome Guest ( Log In | Register )

 
Reply to this topicStart new topic
> Bearblood - Bearblood [ep] (2017), Stoner Metal
post Dec 7 2017, 13:36:32
Post #1

Serial Uploader
Group Icon
Group: V.I.P
Posts: 32,737
Releases: 31035
From: Lithuania
On Forums: 10 years 2 weeks
Thanks: 355815 time(s)
Lithuania


(IMG:https://metalarea.org/images/audiocovers/2017_Dec/acov_tid298929_thumb.jpg)

*Artist: Bearblood
*Album: Bearblood [ep]
*Year: 2017
*Genre: Stoner Metal
*Country: United States (IMG:https://metalarea.org/forum/style_images/flags/United%20States.png)
*Format: mp3@CBR320kbps
*Size: 23MB

Tracklist:
01. Bare King
02. Cinderella 99
03. Light Of The Sun
******************************
Total playing time: 10:19



Technical info
(IMG:https://metalarea.org/images/spectrogram/2017_Dec/65369c152a2ea19d54dad30b8c57c656.png)
Input File: 02. Cinderella 99.mp3
Channels : 2
Sample Rate : 44100
Precision : 16-bit
Duration : 00:03:14.40 = 8572952 samples = 14579.9 CDDA sectors
File Size : 7.81M
Bit Rate : 321k
Sample Encoding: MPEG audio (layer I, II or III)
Comments :
Title=Cinderella 99
Artist=Bearblood
Album=Bearblood
Tracknumber=2/3
Year=2017
Genre=9
Discnumber=1/1



Register


Thanks:
Go to the top of the page
  Insert nick Quick quote
+Quote Post

Reply to this topicStart new topic
1 User(s) are reading this topic (1 Guests and 0 Anonymous Users)
0 Members:

 



- Lo-Fi Version Support form
Copyrights and abuse reports form
Time is now: 25th June 2018 - 08:41:18