Welcome Guest ( Log In | Register )

> Broken Bonds - Gravity [ep] (2017), Progressive Metal
post Dec 7 2017, 13:43:00
Post #1

Serial Uploader
Group Icon
Group: V.I.P
Posts: 33,387
Releases: 31657
From: Lithuania
On Forums: 10 years 6 months
Thanks: 361633 time(s)
Lithuania


(IMG:https://metalarea.org/images/audiocovers/2017_Dec/acov_tid298930_thumb.jpg)

*Artist: Broken Bonds
*Album: Gravity [ep]
*Year: 2017
*Genre: Progressive Metal
*Country: United States (IMG:https://metalarea.org/forum/style_images/flags/United%20States.png)
*Format: mp3@CBR320kbps
*Size: 39MB

Tracklist:
01. Snake Boy
02. Heavenly Bodies
03. Bioluminescent
04. Cognitive Dissonance
05. Apophis (Feat. Jordan Rutledge)
******************************
Total playing time: 17:06


(IMG:https://metalarea.org/images/youtube.png)

Technical info
(IMG:https://metalarea.org/images/spectrogram/2017_Dec/44f828af7084bf057522dc4d83c2516f.png)
Input File: 02. Heavenly Bodies.mp3
Channels : 2
Sample Rate : 44100
Precision : 16-bit
Duration : 00:03:52.51 = 10253867 samples = 17438.5 CDDA sectors
File Size : 9.43M
Bit Rate : 324k
Sample Encoding: MPEG audio (layer I, II or III)
Comments :
Title=Heavenly Bodies
Artist=Broken Bonds
Album=Gravity
Tracknumber=2/5
Year=2017
Genre=9
Discnumber=1/1



Register


Go to the top of the page
  Insert nick Quick quote
+Quote Post
 
Start new topic
Replies (1 - 2)
post Dec 7 2017, 18:08:38
Post #2

Пять Литров
*****
Group: Металариец
Posts: 402
Releases: 0
On Forums: 11 years 11 months
Thanks: 51 time(s)
Russian Federation


Если все треки такие как на ютубе,то это джент кор,по любому!
Go to the top of the page
  Insert nick Quick quote
+Quote Post
post Dec 7 2017, 18:15:46
Post #3

Три Литра
***
Group: Завсегдатай
Posts: 299
Releases: 0
From: Сибирь
On Forums: 7 years 9 months
Thanks: 85 time(s)
Russian Federation


Go to the top of the page
  Insert nick Quick quote
+Quote Post

Reply to this topicStart new topic
1 User(s) are reading this topic (1 Guests and 0 Anonymous Users)
0 Members:

 



- Lo-Fi Version Support form
Copyrights and abuse reports form
Time is now: 10th December 2018 - 18:12:14