Welcome Guest ( Log In | Register )

> Broken Bonds - Gravity [ep] (2017), Progressive Metal
post Dec 7 2017, 13:43:00
Post #1

Serial Uploader
Group Icon
Group: V.I.P
Posts: 32,079
Releases: 30394
From: Lithuania
On Forums: 9 years 10 months
Thanks: 349704 time(s)
Lithuania


(IMG:https://metalarea.org/images/audiocovers/2017_Dec/acov_tid298930_thumb.jpg)

*Artist: Broken Bonds
*Album: Gravity [ep]
*Year: 2017
*Genre: Progressive Metal
*Country: United States (IMG:https://metalarea.org/forum/style_images/flags/United%20States.png)
*Format: mp3@CBR320kbps
*Size: 39MB

Tracklist:
01. Snake Boy
02. Heavenly Bodies
03. Bioluminescent
04. Cognitive Dissonance
05. Apophis (Feat. Jordan Rutledge)
******************************
Total playing time: 17:06


(IMG:https://metalarea.org/images/youtube.png)

Technical info
(IMG:https://metalarea.org/images/spectrogram/2017_Dec/44f828af7084bf057522dc4d83c2516f.png)
Input File: 02. Heavenly Bodies.mp3
Channels : 2
Sample Rate : 44100
Precision : 16-bit
Duration : 00:03:52.51 = 10253867 samples = 17438.5 CDDA sectors
File Size : 9.43M
Bit Rate : 324k
Sample Encoding: MPEG audio (layer I, II or III)
Comments :
Title=Heavenly Bodies
Artist=Broken Bonds
Album=Gravity
Tracknumber=2/5
Year=2017
Genre=9
Discnumber=1/1



Register


Вернуться к началу страницы
  Insert nick Quick quote
+Цитировать сообщение
 
Создать новую тему
Replies (1 - 2)
post Dec 7 2017, 18:08:38
Post #2

Четыре Литра
****
Group: Металариец
Posts: 372
Releases: 0
On Forums: 11 years 3 months
Thanks: 48 time(s)
Russian Federation


Если все треки такие как на ютубе,то это джент кор,по любому!
Вернуться к началу страницы
  Insert nick Quick quote
+Цитировать сообщение
post Dec 7 2017, 18:15:46
Post #3

Три Литра
***
Group: Завсегдатай
Posts: 270
Releases: 0
From: Сибирь
On Forums: 7 years 1 month
Thanks: 76 time(s)
Russian Federation


Вернуться к началу страницы
  Insert nick Quick quote
+Цитировать сообщение

ОтветитьСоздать новую тему
2 User(s) are reading this topic (2 Guests and 0 Anonymous Users)
0 Members:

 



- Lo-Fi Version Support form
Copyrights and abuse reports form
Time is now: 21st April 2018 - 23:57:48