Welcome Guest ( Log In | Register )

> Azziard - Metempsychose (2017), Black/Death Metal (D6)
post Dec 7 2017, 13:48:32
Post #1

Serial Uploader
Group Icon
Group: V.I.P
Posts: 32,737
Releases: 31035
From: Lithuania
On Forums: 10 years 2 weeks
Thanks: 355815 time(s)
Lithuania


(IMG:https://metalarea.org/images/audiocovers/2017_Dec/acov_tid298931_thumb.jpg)

*Artist: Azziard
*Album: Metempsychose
*Year: 2017
*Genre: Black/Death Metal
*Country: France (IMG:https://metalarea.org/forum/style_images/flags/France.png)
*Format: mp3@CBR320kbps
*Size: 109MB

Tracklist:
01. Premier Jour 01:19
02. L'Enfer 06:03
03. L'Anachorete, Dies 06:00
04. Ascension 06:07
05. Le Meurtre Du Héro 05:45
06. Second Jour 01:17
07. Archétype 05:17
08. Unus Mundus 05:31
09. Psyché 05:28
10. Le Sacrifice 09:08
******************************
Total playing time: 51:55

(IMG:https://metalarea.org/images/myspace.png)



Technical info
(IMG:https://metalarea.org/images/spectrogram/2017_Dec/0d45f9df6aeb8c2b8039a6ec14e14869.png)
Input File: 02. L\'Enfer.mp3
Channels : 2
Sample Rate : 44100
Precision : 16-bit
Duration : 00:06:03.64 = 16036304 samples = 27272.6 CDDA sectors
File Size : 14.6M
Bit Rate : 322k
Sample Encoding: MPEG audio (layer I, II or III)
Comments :
Title=L'Enfer
Artist=Azziard
Album=Metempsychose
Tracknumber=2/10
Year=2017
Genre=17
Discnumber=1/1



Register


Go to the top of the page
  Insert nick Quick quote
+Quote Post
 
Start new topic
Replies (1 - 5)
post Dec 7 2017, 14:42:39
Post #2

Аннигилятор пивА
Group Icon
Group: V.I.P
Posts: 46,875
Releases: 14086
From: Koenigsberg - TILZIT
On Forums: 12 years 3 weeks
Thanks: 312500 time(s)
Russian Federation


109MB/320
Register


Go to the top of the page
  Insert nick Quick quote
+Quote Post
post Dec 7 2017, 14:54:25
Post #3

Правь статус, ####!111
**************
Group: Металариец
Posts: 2,095
Releases: 0
From: Odessa
On Forums: 10 years 3 months
Thanks: 779 time(s)
Ukraine


Another great top release for this year! (IMG:style_emoticons/default/9.gif)
Go to the top of the page
  Insert nick Quick quote
+Quote Post
post Dec 28 2017, 11:29:50
Post #4

hearer & reader
**************
Group: Металариец
Posts: 6,411
Releases: 81
From: Moscow
On Forums: 10 years 9 months
Thanks: 6423 time(s)
Russian Federation


Шикарный, эталонный злобный напористый блэкодес (IMG:style_emoticons/default/banana.gif)


Thanks:
Go to the top of the page
  Insert nick Quick quote
+Quote Post
post Dec 28 2017, 13:56:29
Post #5

\m/
Group Icon
Group: S-moderation team
Posts: 7,410
Releases: 19
From: Петропавловск-Камчатский
On Forums: 9 years 1 week
Thanks: 6641 time(s)
Russian Federation




Thanks:
Go to the top of the page
  Insert nick Quick quote
+Quote Post
post Mar 17 2018, 23:20:34
Post #6

Правь статус, ####!111
**************
Group: Металариец
Posts: 2,095
Releases: 0
From: Odessa
On Forums: 10 years 3 months
Thanks: 779 time(s)
Ukraine


One of 2017 best releases (IMG:style_emoticons/default/metaler.gif) (IMG:style_emoticons/default/metaler.gif)
Go to the top of the page
  Insert nick Quick quote
+Quote Post

Reply to this topicStart new topic
1 User(s) are reading this topic (1 Guests and 0 Anonymous Users)
0 Members:

 



- Lo-Fi Version Support form
Copyrights and abuse reports form
Time is now: 25th June 2018 - 08:33:33