Welcome Guest ( Log In | Register )

> Infected Dead - Archaic Malevolence [ep] (2017), Death Metal
post Dec 7 2017, 13:54:52
Post #1

Serial Uploader
Group Icon
Group: V.I.P
Posts: 31,478
Releases: 29810
From: Lithuania
On Forums: 9 years 8 months
Thanks: 342206 time(s)
Lithuania


(IMG:https://metalarea.org/images/audiocovers/2017_Dec/acov_tid298932_thumb.jpg)

*Artist: Infected Dead
*Album: Archaic Malevolence [ep]
*Year: 2017
*Genre: Death Metal
*Country: United Kingdom (IMG:https://metalarea.org/forum/style_images/flags/United%20Kingdom.png)
*Format: mp3@CBR320kbps
*Size: 64MB

Tracklist:
01. Book Of Dead Names
02. Archaic Malevolence
03. Resurrectionist
04. Invocation Of Unspeakable Gods
05. Forced Existence
06. Samsara
******************************
Total playing time: 27:38




Technical info
(IMG:https://metalarea.org/images/spectrogram/2017_Dec/6854b9a430132eac879bc5361a8986cc.png)
Input File: 03. Resurrectionist.mp3
Channels : 2
Sample Rate : 44100
Precision : 16-bit
Duration : 00:04:50.20 = 12797732 samples = 21764.9 CDDA sectors
File Size : 11.7M
Bit Rate : 323k
Sample Encoding: MPEG audio (layer I, II or III)
Comments :
Title=Resurrectionist
Artist=Infected Dead
Album=Archaic Malevolence
Tracknumber=3/6
Year=2017
Genre=9
Discnumber=1/1



Register


Вернуться к началу страницы
  Insert nick Quick quote
+Цитировать сообщение
 
Создать новую тему
Replies (1 - 2)
post Dec 7 2017, 14:45:50
Post #2

Аннигилятор пивА
Group Icon
Group: V.I.P
Posts: 45,793
Releases: 13674
From: Koenigsberg - TILZIT
On Forums: 11 years 8 months
Thanks: 302556 time(s)
Russian Federation


Неплохо, все портят металкоровые вопли второго вокалиста
58MB/320
Register


Вернуться к началу страницы
  Insert nick Quick quote
+Цитировать сообщение
post Dec 8 2017, 15:00:51
Post #3

ухо-горло-нос
*******
Group: Металариец
Posts: 742
Releases: 0
From: Севастополь
On Forums: 7 years 5 months
Thanks: 321 time(s)
Russian Federation


Кстати дерзко и напористо. Неватно и достаточно приятно для слуха. Старательно ко всем ватным теппингистам и дриблёрам этой планеты.
Вернуться к началу страницы
  Insert nick Quick quote
+Цитировать сообщение

ОтветитьСоздать новую тему
1 User(s) are reading this topic (1 Guests and 0 Anonymous Users)
0 Members:

 



- Lo-Fi Version Support form
Copyrights and abuse reports form
Time is now: 24th February 2018 - 16:44:49