Welcome Guest ( Log In | Register )

 
Reply to this topicStart new topic
> Residivis - Residivis (2017), Sludge/Death Metal/Hardcore
post Dec 7 2017, 14:03:23
Post #1

Serial Uploader
Group Icon
Group: V.I.P
Posts: 32,737
Releases: 31035
From: Lithuania
On Forums: 10 years 2 weeks
Thanks: 355815 time(s)
Lithuania


(IMG:https://metalarea.org/images/audiocovers/2017_Dec/acov_tid298933_thumb.jpg)

*Artist: Residivis
*Album: Residivis
*Year: 2017
*Genre: Sludge/Death Metal/Hardcore
*Country: United States (IMG:https://metalarea.org/forum/style_images/flags/United%20States.png)
*Format: mp3@CBR320kbps
*Size: 63MB

Tracklist:
01. Habitual Hatred
02. Meaningless Existence
03. 8 Pounds
04. HPV
05. All Of My Hate
06. Slave To Your God
07. Godhole
08. Plants
09. Patricide
10. Snailmaster
******************************
Total playing time: 29:14



Technical info
(IMG:https://metalarea.org/images/spectrogram/2017_Dec/2d053328e1488b903973d281d4697681.png)
Input File: 02. Meaningless Existence.mp3
Channels : 2
Sample Rate : 44100
Precision : 16-bit
Duration : 00:03:06.51 = 8225003 samples = 13988.1 CDDA sectors
File Size : 7.56M
Bit Rate : 324k
Sample Encoding: MPEG audio (layer I, II or III)
Comments :
Title=Meaningless Existence
Artist=Residivis
Album=Residivis
Tracknumber=2/10
Year=2017
Genre=9
Discnumber=1/1



Register


Thanks:
Go to the top of the page
  Insert nick Quick quote
+Quote Post

Reply to this topicStart new topic
1 User(s) are reading this topic (1 Guests and 0 Anonymous Users)
0 Members:

 



- Lo-Fi Version Support form
Copyrights and abuse reports form
Time is now: 25th June 2018 - 08:34:59