Welcome Guest ( Log In | Register )

> Grimtone - Memento Mori (2017), Black Metal
post Dec 7 2017, 14:09:22
Post #1

Serial Uploader
Group Icon
Group: V.I.P
Posts: 32,079
Releases: 30394
From: Lithuania
On Forums: 9 years 10 months
Thanks: 349704 time(s)
Lithuania


(IMG:https://metalarea.org/images/audiocovers/2017_Dec/acov_tid298935_thumb.jpg)

*Artist: Grimtone
*Album: Memento Mori
*Year: 2017
*Genre: Black Metal
*Country: Sweden (IMG:https://metalarea.org/forum/style_images/flags/Sweden.png)
*Format: mp3@CBR320kbps
*Size: 67MB

Tracklist:
01. Intro 00:39
02. Souls Reborn In Hate 03:42
03. The Blood Of The Dead 06:07
04. Memento Mori 03:35
05. Fields Of Pale Limbs 03:28
06. Armageddon (Rise From Hell) 04:37
07. Witch's Lair 04:01
08. Empress Of The Black 06:03
******************************
Total playing time: 32:12



(IMG:https://metalarea.org/images/youtube.png)

Technical info
(IMG:https://metalarea.org/images/spectrogram/2017_Dec/7e872b58379f6ecc9b6b83ab7463dde9.png)
Input File: 02. Souls Reborn in Hate.mp3
Channels : 2
Sample Rate : 44100
Precision : 16-bit
Duration : 00:03:42.72 = 9821820 samples = 16703.8 CDDA sectors
File Size : 9.02M
Bit Rate : 324k
Sample Encoding: MPEG audio (layer I, II or III)
Comments :
Title=Souls Reborn in Hate
Artist=Grimtone
Album=Memento Mori
Tracknumber=2/8
Year=2017
Genre=9
Discnumber=1/1



Register


Вернуться к началу страницы
  Insert nick Quick quote
+Цитировать сообщение
 
Создать новую тему
Replies (1 - 1)
post Dec 7 2017, 15:42:28
Post #2

Аннигилятор пивА
Group Icon
Group: V.I.P
Posts: 46,651
Releases: 14002
From: Koenigsberg - TILZIT
On Forums: 11 years 10 months
Thanks: 310007 time(s)
Russian Federation


320/66mb
Register


Вернуться к началу страницы
  Insert nick Quick quote
+Цитировать сообщение

ОтветитьСоздать новую тему
2 User(s) are reading this topic (2 Guests and 0 Anonymous Users)
0 Members:

 



- Lo-Fi Version Support form
Copyrights and abuse reports form
Time is now: 22nd April 2018 - 00:02:16