Welcome Guest ( Log In | Register )

 
ОтветитьСоздать новую тему
> Æsthetica - Sonorus Æon (2017), Psychedelic Doom Metal
post Dec 7 2017, 14:14:54
Post #1

Serial Uploader
Group Icon
Group: V.I.P
Posts: 32,079
Releases: 30394
From: Lithuania
On Forums: 9 years 10 months
Thanks: 349704 time(s)
Lithuania


(IMG:https://metalarea.org/images/audiocovers/2017_Dec/acov_tid298936_thumb.jpg)

*Artist: Æsthetica
*Album: Sonorus Æon
*Year: 2017
*Genre: Psychedelic Doom Metal
*Country: Norway (IMG:https://metalarea.org/forum/style_images/flags/Norway.png)
*Format: mp3@CBR320kbps
*Size: 101MB

Tracklist:
01. Haze 05:56
02. Todesfuge 05:47
03. La Paz 10:36
04. Gates 05:56
05. Worshipper 05:48
06. Ekstasis 09:57
******************************
Total playing time: 44:00





Technical info
(IMG:https://metalarea.org/images/spectrogram/2017_Dec/c88620b76ed1ec0d7018b4e7aeb1348c.png)
Input File: 02. Todesfuge.mp3
Channels : 2
Sample Rate : 44100
Precision : 16-bit
Duration : 00:05:47.26 = 15313946 samples = 26044.1 CDDA sectors
File Size : 13.9M
Bit Rate : 321k
Sample Encoding: MPEG audio (layer I, II or III)
Comments :
Title=Todesfuge
Artist=Г†sthetica
Album=Sonorous Г†on
Tracknumber=2/6
Year=2017
Genre=17
Discnumber=1/1



Register


Вернуться к началу страницы
  Insert nick Quick quote
+Цитировать сообщение

ОтветитьСоздать новую тему
2 User(s) are reading this topic (2 Guests and 0 Anonymous Users)
0 Members:

 



- Lo-Fi Version Support form
Copyrights and abuse reports form
Time is now: 21st April 2018 - 23:58:50