Welcome Guest ( Log In | Register )

> Schiermann - Schiermann (2017), Instrumental/Progressive Metal
post Dec 7 2017, 14:23:17
Post #1

Serial Uploader
Group Icon
Group: V.I.P
Posts: 33,387
Releases: 31657
From: Lithuania
On Forums: 10 years 6 months
Thanks: 361633 time(s)
Lithuania


(IMG:https://metalarea.org/images/audiocovers/2017_Dec/acov_tid298937_thumb.jpg)

*Artist: Schiermann
*Album: Schiermann
*Year: 2017
*Genre: Instrumental/Progressive Metal
*Country: United States (IMG:https://metalarea.org/forum/style_images/flags/United%20States.png)
*Format: mp3@CBR320kbps
*Size: 120MB

Tracklist:
01. Weniger Zeit (Feat. Navene Koperweis & Jakub Żytecki)
02. Northern Lights (Feat. Navene Koperweis)
03. Stygian Path (Feat. Adrián Terrazas-González & Jakub Żytecki)
04. Amarantine (Feat. Acle Kahney & Mike Malyan)
05. Flexuous (Feat. Matt Garstka & Chris Maresh)
06. Technical Disabilities (Feat. Amos Williams)
07. A New Day (Feat. Ashe ƠHara & Adrián Terrazas-González)
******************************
Total playing time: 52:21



Technical info
(IMG:https://metalarea.org/images/spectrogram/2017_Dec/41be9179ac5e2b8f0ccdc706dee207d2.png)
Input File: 02. Northern Lights (feat. Navene Koperweis).mp3
Channels : 2
Sample Rate : 44100
Precision : 16-bit
Duration : 00:04:47.32 = 12670988 samples = 21549.3 CDDA sectors
File Size : 11.6M
Bit Rate : 322k
Sample Encoding: MPEG audio (layer I, II or III)
Comments :
Title=Northern Lights (feat. Navene Koperweis)
Artist=Schiermann
Album=Schiermann
Tracknumber=2/7
Year=2017
Genre=9
Discnumber=1/1



Register


Go to the top of the page
  Insert nick Quick quote
+Quote Post
 
Start new topic
Replies (1 - 1)
post Dec 8 2017, 17:21:36
Post #2

Три Литра
***
Group: Завсегдатай
Posts: 299
Releases: 0
From: Сибирь
On Forums: 7 years 9 months
Thanks: 85 time(s)
Russian Federation




Thanks:
Go to the top of the page
  Insert nick Quick quote
+Quote Post

Reply to this topicStart new topic
1 User(s) are reading this topic (1 Guests and 0 Anonymous Users)
0 Members:

 



- Lo-Fi Version Support form
Copyrights and abuse reports form
Time is now: 10th December 2018 - 18:08:00