Welcome Guest ( Log In | Register )

> White Mountain - The Delta Sessions (2017), Progressive Metal
post Dec 7 2017, 14:30:11
Post #1

Serial Uploader
Group Icon
Group: V.I.P
Posts: 33,061
Releases: 31346
From: Lithuania
On Forums: 10 years 3 months
Thanks: 358593 time(s)
Lithuania


(IMG:https://metalarea.org/images/audiocovers/2017_Dec/acov_tid298938_thumb.jpg)

*Artist: White Mountain
*Album: The Delta Sessions
*Year: 2017
*Genre: Progressive Metal
*Country: Germany (IMG:https://metalarea.org/forum/style_images/flags/Germany.png)
*Format: mp3@CBR320kbps
*Size: 151MB

Tracklist:
01. Bellicose Wolf
02. Make a Wish (feat. Jackie Koopmann)
03. Trail of the Snake (feat. Jochen Miller)
04. Happiness by Chance
05. My Winds (feat. Celina Di Stefano)
06. The Sadness of Your Chains (feat. Nicolas Ciezki)
07. Northern Soul
08. A Way to Stay Alive (feat. Deibys Artigas)
09. Real Life (feat. Nina Jiers)
10. Constant Chaos
11. Drowning (feat. Lorenza Vand)
12. Like Above So Below (feat. Marc Warncke)
13. The Link
14. We Don't Care
15. The Creature (feat. Jackie Koopmann)
******************************
Total playing time: 1:11:06




Technical info
(IMG:https://metalarea.org/images/spectrogram/2017_Dec/e503dd8a875ce56d79afc603e6ff1933.png)
Input File: 02. Make a Wish (feat. Jackie Koopmann).mp3
Channels : 2
Sample Rate : 44100
Precision : 16-bit
Duration : 00:04:38.83 = 12296579 samples = 20912.5 CDDA sectors
File Size : 11.3M
Bit Rate : 323k
Sample Encoding: MPEG audio (layer I, II or III)
Comments :
Title=Make a Wish (feat. Jackie Koopmann)
Artist=White Mountain
Album=The Delta Sessions
Tracknumber=2/15
Year=2017
Genre=17
Discnumber=1/1



Register


Go to the top of the page
  Insert nick Quick quote
+Quote Post
 
Start new topic
Replies (1 - 5)
post Dec 7 2017, 17:43:57
Post #2

Четыре Литра
****
Group: Металариец
Posts: 388
Releases: 0
On Forums: 11 years 8 months
Thanks: 50 time(s)
Russian Federation


До 6-го трека дослушал и все...все так коммерчески и попсово звучит.
Go to the top of the page
  Insert nick Quick quote
+Quote Post
post Dec 8 2017, 07:34:48
Post #3

hearer & reader
**************
Group: Металариец
Posts: 6,857
Releases: 86
From: Moscow
On Forums: 11 years 1 week
Thanks: 6614 time(s)
Russian Federation


Это и есть попсячий электропроговый проект некого Мирко Ертмера с приглашёнными вокалистами.
Go to the top of the page
  Insert nick Quick quote
+Quote Post
post Dec 9 2017, 19:24:03
Post #4

21st Century Schizoid Man
**************
Group: Металариец
Posts: 5,243
Releases: 67
From: Moscow
On Forums: 10 years 4 months
Thanks: 4127 time(s)
Russian Federation


Не, зря вы. Хороший проект. Особой такой заточенности на попсу не заметил.
Go to the top of the page
  Insert nick Quick quote
+Quote Post
post Dec 10 2017, 22:54:40
Post #5

Победитель судьбы
**************
Group: Металариец
Posts: 5,070
Releases: 0
From: Страны Мамонтов
On Forums: 11 years 7 months
Thanks: 1739 time(s)
Antarctica


Так это и есть не-особо-заточеный-под-попсу-но-попсовый-электропрог
Go to the top of the page
  Insert nick Quick quote
+Quote Post
post Dec 11 2017, 17:17:32
Post #6

Четыре Литра
****
Group: Металариец
Posts: 388
Releases: 0
On Forums: 11 years 8 months
Thanks: 50 time(s)
Russian Federation


Кароч,не от души ,есьже,пасаны
Go to the top of the page
  Insert nick Quick quote
+Quote Post

Reply to this topicStart new topic
1 User(s) are reading this topic (1 Guests and 0 Anonymous Users)
0 Members:

 



- Lo-Fi Version Support form
Copyrights and abuse reports form
Time is now: 21st September 2018 - 07:23:36