Welcome Guest ( Log In | Register )

 
ОтветитьСоздать новую тему
> Hoofmark - Stoic Winds (2017), Black Metal
post Dec 7 2017, 14:35:28
Post #1

Serial Uploader
Group Icon
Group: V.I.P
Posts: 31,478
Releases: 29810
From: Lithuania
On Forums: 9 years 8 months
Thanks: 342204 time(s)
Lithuania


(IMG:https://metalarea.org/images/audiocovers/2017_Dec/acov_tid298939_thumb.jpg)

*Artist: Hoofmark
*Album: Stoic Winds
*Year: 2017
*Genre: Black Metal
*Country: Portugal (IMG:https://metalarea.org/forum/style_images/flags/Portugal.png)
*Format: mp3@CBR320kbps
*Size: 116MB

Tracklist:
01. Yours Should Be A Heavy Casket 01:36
02. Amongst A Sea Of Darkness 05:26
03. Stoic Winds 09:11
04. Dust Trails 03:53
05. Dust Trails Blazing 06:36
06. An Arrow Long Due 07:04
07. From The Foot Of God's Throne 06:39
08. Horror Maximus 08:26
09. Hoofmarks 01:29
******************************
Total playing time: 50:20




Technical info
(IMG:https://metalarea.org/images/spectrogram/2017_Dec/d2c6a20cb92f06f0b3a8be0c86e45c87.png)
Input File: 02. Amongst a Sea of Darkness.mp3
Channels : 2
Sample Rate : 44100
Precision : 16-bit
Duration : 00:05:26.67 = 14406059 samples = 24500.1 CDDA sectors
File Size : 13.1M
Bit Rate : 322k
Sample Encoding: MPEG audio (layer I, II or III)
Comments :
Title=Amongst a Sea of Darkness
Artist=Hoofmark
Album=Stoic Winds
Tracknumber=2/9
Year=2017
Genre=9
Discnumber=1/1



Register


Вернуться к началу страницы
  Insert nick Quick quote
+Цитировать сообщение

ОтветитьСоздать новую тему
1 User(s) are reading this topic (1 Guests and 0 Anonymous Users)
0 Members:

 



- Lo-Fi Version Support form
Copyrights and abuse reports form
Time is now: 24th February 2018 - 16:42:34