Welcome Guest ( Log In | Register )

> Icecocoon - How Long Is Forever? (2017), Progressive Metal
post Dec 7 2017, 14:41:02
Post #1

Serial Uploader
Group Icon
Group: V.I.P
Posts: 32,079
Releases: 30394
From: Lithuania
On Forums: 9 years 10 months
Thanks: 349704 time(s)
Lithuania


(IMG:https://metalarea.org/images/audiocovers/2017_Dec/acov_tid298940_thumb.jpg)

*Artist: Icecocoon
*Album: How Long Is Forever?
*Year: 2017
*Genre: Progressive Metal
*Country: Australia (IMG:https://metalarea.org/forum/style_images/flags/Australia.png)
*Format: mp3@CBR320kbps
*Size: 101MB

Tracklist:
01. The Great Aerial Ocean
02. Falling Away
03. Breaking You Apart
04. Lost at Sea
05. The Particle Horizon
06. Did It All
07. Sunlight Sonata
08. One Hundred Times My Weight
******************************
Total playing time: 43:54



Technical info
(IMG:https://metalarea.org/images/spectrogram/2017_Dec/8a28ba798d2bc39a783d48ce22432c28.png)
Input File: 02. Falling Away.mp3
Channels : 2
Sample Rate : 44100
Precision : 16-bit
Duration : 00:04:32.80 = 12030436 samples = 20459.9 CDDA sectors
File Size : 11.0M
Bit Rate : 323k
Sample Encoding: MPEG audio (layer I, II or III)
Comments :
Title=Falling Away
Artist=icecocoon
Album=How Long is Forever?
Tracknumber=2/8
Year=2017
Genre=9
Discnumber=1/1



Register


Вернуться к началу страницы
  Insert nick Quick quote
+Цитировать сообщение
 
Создать новую тему
Replies (1 - 5)
post Dec 7 2017, 19:18:37
Post #2

21st Century Schizoid Man
**************
Group: Металариец
Posts: 5,009
Releases: 66
From: Moscow
On Forums: 9 years 11 months
Thanks: 3964 time(s)
Russian Federation


Качну без превью. Австралия рулит.
Вернуться к началу страницы
  Insert nick Quick quote
+Цитировать сообщение
post Dec 7 2017, 20:30:18
Post #3

Ёлд ХеллоВяйне
Group Icon
Group: V.I.P
Posts: 25,216
Releases: 130
From: Питер
On Forums: 11 years 5 months
Thanks: 13873 time(s)
Russian Federation


щющють првью:

https://www.amazon.de/How-Long-Forever-icec...g+is+Forever%3F
Вернуться к началу страницы
  Insert nick Quick quote
+Цитировать сообщение
post Dec 7 2017, 22:58:00
Post #4

Шесть Литров
******
Group: Металариец
Posts: 508
Releases: 0
From: Черкассы
On Forums: 6 years 4 months
Thanks: 73 time(s)
Ukraine





Thanks:
Вернуться к началу страницы
  Insert nick Quick quote
+Цитировать сообщение
post Dec 8 2017, 07:28:06
Post #5

hearer & reader
**************
Group: Металариец
Posts: 6,156
Releases: 81
From: Moscow
On Forums: 10 years 7 months
Thanks: 6332 time(s)
Russian Federation


Третий альбом. Инфа - http://adelaidemusic.wikia.com/wiki/Icecocoon
Приятный релаксационный материал.
Вернуться к началу страницы
  Insert nick Quick quote
+Цитировать сообщение
post Dec 10 2017, 16:01:20
Post #6

21st Century Schizoid Man
**************
Group: Металариец
Posts: 5,009
Releases: 66
From: Moscow
On Forums: 9 years 11 months
Thanks: 3964 time(s)
Russian Federation


Блин, кого-то напоминают, но кого - не вспомню. Приятный альбом.
Вернуться к началу страницы
  Insert nick Quick quote
+Цитировать сообщение

ОтветитьСоздать новую тему
2 User(s) are reading this topic (2 Guests and 0 Anonymous Users)
0 Members:

 



- Lo-Fi Version Support form
Copyrights and abuse reports form
Time is now: 22nd April 2018 - 00:03:05