Welcome Guest ( Log In | Register )

> All We Expected - Hatàr (2017), Post-Metal
post Dec 7 2017, 14:47:10
Post #1

Serial Uploader
Group Icon
Group: V.I.P
Posts: 33,389
Releases: 31659
From: Lithuania
On Forums: 10 years 6 months
Thanks: 361688 time(s)
Lithuania


(IMG:https://metalarea.org/images/audiocovers/2017_Dec/acov_tid298941_thumb.jpg)

*Artist: All We Expected
*Album: Hatàr
*Year: 2017
*Genre: Post-Metal
*Country: Belgium (IMG:https://metalarea.org/forum/style_images/flags/Belgium.png)
*Format: mp3@CBR320kbps
*Size: 92MB

Tracklist:
01. Abano
02. Feudal
03. Nomad
04. Shortlived
05. Conquered, We Conquer
******************************
Total playing time: 42:33



Technical info
(IMG:https://metalarea.org/images/spectrogram/2017_Dec/c123c097504a495983cf05189bf2accb.png)
Input File: 02. Feudal.mp3
Channels : 2
Sample Rate : 44100
Precision : 16-bit
Duration : 00:07:58.95 = 21121695 samples = 35921.2 CDDA sectors
File Size : 19.3M
Bit Rate : 322k
Sample Encoding: MPEG audio (layer I, II or III)
Comments :
Title=Feudal
Artist=All We Expected
Album=HatГ r
Tracknumber=2/5
Year=2017
Genre=9
Discnumber=1/1



Register


Go to the top of the page
  Insert nick Quick quote
+Quote Post
 
Start new topic
Replies (1 - 1)
post Dec 8 2017, 23:23:02
Post #2

Правь статус, ####!111
**************
Group: Металариец
Posts: 2,421
Releases: 11
From: Canada
On Forums: 11 years 6 months
Thanks: 1543 time(s)
Canada


Go to the top of the page
  Insert nick Quick quote
+Quote Post

Reply to this topicStart new topic
1 User(s) are reading this topic (1 Guests and 0 Anonymous Users)
0 Members:

 



- Lo-Fi Version Support form
Copyrights and abuse reports form
Time is now: 11th December 2018 - 15:46:51