Welcome Guest ( Log In | Register )

> Daedalean Complex - After The Fall (2017), Symphonic/Melodic Death Metal
post Dec 7 2017, 14:53:35
Post #1

Serial Uploader
Group Icon
Group: V.I.P
Posts: 33,389
Releases: 31659
From: Lithuania
On Forums: 10 years 6 months
Thanks: 361685 time(s)
Lithuania


(IMG:https://metalarea.org/images/audiocovers/2017_Dec/acov_tid298942_thumb.jpg)

*Artist: Daedalean Complex
*Album: After The Fall
*Year: 2017
*Genre: Symphonic/Melodic Death Metal
*Country: Canada (IMG:https://metalarea.org/forum/style_images/flags/Canada.png)
*Format: mp3@CBR320kbps
*Size: 145MB

Tracklist:
01. Through The Ishtar Gate...
02. The Fall Of Icarus
03. Frozen Shade
04. Under The Umbrella
05. The Illusion Of Freedom
06. Distant Dreams
07. A Garden Of Lies
08. Parasite
09. The Cosmological Riddle
10. Elysian Fields
11. A Grim Myriad
12. The Wanderer
13. ... To Etemenanki
******************************
Total playing time: 1:02:50

(IMG:https://metalarea.org/images/myspace.png)





Technical info
(IMG:https://metalarea.org/images/spectrogram/2017_Dec/6d4b5d9693d104c4a185e0f8f5ba7eab.png)
Input File: 02. The Fall of Icarus.mp3
Channels : 2
Sample Rate : 44100
Precision : 16-bit
Duration : 00:04:27.08 = 11778140 samples = 20030.9 CDDA sectors
File Size : 10.8M
Bit Rate : 323k
Sample Encoding: MPEG audio (layer I, II or III)
Comments :
Title=The Fall of Icarus
Artist=Daedalean Complex
Album=After The Fall
Tracknumber=2/13
Year=2017
Genre=17
Discnumber=1/1



Register


Go to the top of the page
  Insert nick Quick quote
+Quote Post
 
Start new topic
Replies (1 - 5)
post Dec 7 2017, 15:41:14
Post #2

Мегаманьяк
***********
Group: Металариец
Posts: 1,738
Releases: 0
From: Dnipro
On Forums: 10 years 4 months
Thanks: 459 time(s)
Ukraine


Страна то не Австралия, а Канада, в частности провинция Квебек (IMG:style_emoticons/default/look.gif)
В стиль бы еще добавил индастриал метал.
Go to the top of the page
  Insert nick Quick quote
+Quote Post
post Dec 7 2017, 20:46:35
Post #3

MDM-Thrash Metal
**************
Group: Металариец
Posts: 7,297
Releases: 423
From: Одесса
On Forums: 11 years 4 months
Thanks: 13872 time(s)
Ukraine


Register


ЦИТАТА(isvili @ Dec 7 2017, 18:41:14) *
В стиль бы еще добавил индастриал метал.

Правильно говорят, что сколько людей, столько и мнений...
Мне, помимо мелодеза, так еще и нотки мелоблэка отчетливо прослеживаются. И очень симпатичный материал.


Go to the top of the page
  Insert nick Quick quote
+Quote Post
post Dec 8 2017, 07:20:24
Post #4

hearer & reader
**************
Group: Металариец
Posts: 7,221
Releases: 92
From: Moscow
On Forums: 11 years 3 months
Thanks: 6865 time(s)
Russian Federation


Симфоничная блэкуха. Деса чуток вместо былого индастриала. И да, приятно звучит.
Так пойдёт дальше - ещё и блэк изживут. Пожалуй, послушаю пару их последних альбомов.
Go to the top of the page
  Insert nick Quick quote
+Quote Post
post Dec 8 2017, 14:06:00
Post #5

MDM-Thrash Metal
**************
Group: Металариец
Posts: 7,297
Releases: 423
From: Одесса
On Forums: 11 years 4 months
Thanks: 13872 time(s)
Ukraine


ЦИТАТА(AHBAnep @ Dec 8 2017, 10:20:24) *
Симфоничная блэкуха. Деса чуток вместо былого индастриала.


Да я вот тоже еще раз переслушал - чет индастриала в упор не слышу.
А материал очень доставляет! (IMG:style_emoticons/default/pray.gif)
Go to the top of the page
  Insert nick Quick quote
+Quote Post
post Dec 8 2017, 21:09:54
Post #6

Ъ
**************
Group: Металариец
Posts: 9,273
Releases: 9
On Forums: 9 years 11 months
Thanks: 1777 time(s)
Sweden


Осилил 4 трека, очень однообразно, ничего интересного.
Go to the top of the page
  Insert nick Quick quote
+Quote Post

Reply to this topicStart new topic
1 User(s) are reading this topic (1 Guests and 0 Anonymous Users)
0 Members:

 



- Lo-Fi Version Support form
Copyrights and abuse reports form
Time is now: 11th December 2018 - 14:45:08