Welcome Guest ( Log In | Register )

> Daedalean Complex - After The Fall (2017), Symphonic/Melodic Death Metal
post Dec 7 2017, 14:53:35
Post #1

Serial Uploader
Group Icon
Group: V.I.P
Posts: 32,079
Releases: 30394
From: Lithuania
On Forums: 9 years 10 months
Thanks: 349704 time(s)
Lithuania


(IMG:https://metalarea.org/images/audiocovers/2017_Dec/acov_tid298942_thumb.jpg)

*Artist: Daedalean Complex
*Album: After The Fall
*Year: 2017
*Genre: Symphonic/Melodic Death Metal
*Country: Canada (IMG:https://metalarea.org/forum/style_images/flags/Canada.png)
*Format: mp3@CBR320kbps
*Size: 145MB

Tracklist:
01. Through The Ishtar Gate...
02. The Fall Of Icarus
03. Frozen Shade
04. Under The Umbrella
05. The Illusion Of Freedom
06. Distant Dreams
07. A Garden Of Lies
08. Parasite
09. The Cosmological Riddle
10. Elysian Fields
11. A Grim Myriad
12. The Wanderer
13. ... To Etemenanki
******************************
Total playing time: 1:02:50

(IMG:https://metalarea.org/images/myspace.png)





Technical info
(IMG:https://metalarea.org/images/spectrogram/2017_Dec/6d4b5d9693d104c4a185e0f8f5ba7eab.png)
Input File: 02. The Fall of Icarus.mp3
Channels : 2
Sample Rate : 44100
Precision : 16-bit
Duration : 00:04:27.08 = 11778140 samples = 20030.9 CDDA sectors
File Size : 10.8M
Bit Rate : 323k
Sample Encoding: MPEG audio (layer I, II or III)
Comments :
Title=The Fall of Icarus
Artist=Daedalean Complex
Album=After The Fall
Tracknumber=2/13
Year=2017
Genre=17
Discnumber=1/1



Register


Вернуться к началу страницы
  Insert nick Quick quote
+Цитировать сообщение
 
Создать новую тему
Replies (1 - 5)
post Dec 7 2017, 15:41:14
Post #2

Девять Литров
*********
Group: Металариец
Posts: 915
Releases: 0
From: Dnipro
On Forums: 9 years 9 months
Thanks: 242 time(s)
Ukraine


Страна то не Австралия, а Канада, в частности провинция Квебек (IMG:style_emoticons/default/look.gif)
В стиль бы еще добавил индастриал метал.
Вернуться к началу страницы
  Insert nick Quick quote
+Цитировать сообщение
post Dec 7 2017, 20:46:35
Post #3

MDM-Thrash Metal
**************
Group: Металариец
Posts: 6,526
Releases: 404
From: Одесса
On Forums: 10 years 8 months
Thanks: 12455 time(s)
Ukraine


Register


ЦИТАТА(isvili @ Dec 7 2017, 18:41:14) *
В стиль бы еще добавил индастриал метал.

Правильно говорят, что сколько людей, столько и мнений...
Мне, помимо мелодеза, так еще и нотки мелоблэка отчетливо прослеживаются. И очень симпатичный материал.


Вернуться к началу страницы
  Insert nick Quick quote
+Цитировать сообщение
post Dec 8 2017, 07:20:24
Post #4

hearer & reader
**************
Group: Металариец
Posts: 6,156
Releases: 81
From: Moscow
On Forums: 10 years 7 months
Thanks: 6332 time(s)
Russian Federation


Симфоничная блэкуха. Деса чуток вместо былого индастриала. И да, приятно звучит.
Так пойдёт дальше - ещё и блэк изживут. Пожалуй, послушаю пару их последних альбомов.
Вернуться к началу страницы
  Insert nick Quick quote
+Цитировать сообщение
post Dec 8 2017, 14:06:00
Post #5

MDM-Thrash Metal
**************
Group: Металариец
Posts: 6,526
Releases: 404
From: Одесса
On Forums: 10 years 8 months
Thanks: 12455 time(s)
Ukraine


ЦИТАТА(AHBAnep @ Dec 8 2017, 10:20:24) *
Симфоничная блэкуха. Деса чуток вместо былого индастриала.


Да я вот тоже еще раз переслушал - чет индастриала в упор не слышу.
А материал очень доставляет! (IMG:style_emoticons/default/pray.gif)
Вернуться к началу страницы
  Insert nick Quick quote
+Цитировать сообщение
post Dec 8 2017, 21:09:54
Post #6

Ъ
**************
Group: Металариец
Posts: 8,990
Releases: 9
On Forums: 9 years 3 months
Thanks: 1676 time(s)
Sweden


Осилил 4 трека, очень однообразно, ничего интересного.
Вернуться к началу страницы
  Insert nick Quick quote
+Цитировать сообщение

ОтветитьСоздать новую тему
2 User(s) are reading this topic (2 Guests and 0 Anonymous Users)
0 Members:

 



- Lo-Fi Version Support form
Copyrights and abuse reports form
Time is now: 21st April 2018 - 23:57:17