Welcome Guest ( Log In | Register )

> 13th Moon & Ritual Death - Mors Triumphans [split] (2017), Black Metal | Black Metal
post Dec 7 2017, 14:55:53
Post #1

Маньяк
**********
Group: Металариец
Posts: 1,447
Releases: 1131
From: Prešov
On Forums: 4 years 8 months
Thanks: 26628 time(s)
Slovakia


(IMG:http://metalarea.org/images/audiocovers/2017_Dec/acov_tid298943_thumb.jpg)

*Artist: 13th Moon & Ritual Death
*Album: Mors Triumphans [split]
*Year: 2017
*Genre: Black Metal | Black Metal
*Country: Spain (IMG:http://metalarea.org/forum/style_images/flags/Spain.png) | Norway (IMG:http://metalarea.org/forum/style_images/flags/Norway.png)
*Format: mp3@VBR245kbps
*Size: 28MB

Tracklist:
13th Moon:
1. Veneration Of The Mighty Dead 07:36
Ritual Death:
2. Señor De La Tumba 03:33
******************************
Total playing time: 11:09



Extended info
Triangulum Ignis ‎– AZOTH17, Terratur Possessions ‎– VOICE 067
Vinyl, 7"


Technical info
(IMG:http://metalarea.org/images/spectrogram/2017_Dec/0d3311dd52c4d0824eeb200a90251bdb.png)
Input File: 01. 13th Moon - Veneration Of The Mighty Dead.mp3
Channels : 2
Sample Rate : 44100
Precision : 16-bit
Duration : 00:07:36.07 = 20112731 samples = 34205.3 CDDA sectors
File Size : 14.8M
Bit Rate : 260k
Sample Encoding: MPEG audio (layer I, II or III)
Comments :
Title=Veneration Of The Mighty Dead
Artist=13th Moon / Ritual Death
Album=Mors Triumphans
Tracknumber=01/02
Year=2017
Genre=Black Metal
Discnumber=1/1



Register


Go to the top of the page
  Insert nick Quick quote
+Quote Post
 
Start new topic
Replies (1 - 2)
post Dec 7 2017, 16:16:36
Post #2

filed under desecration
Group Icon
Group: S-moderation team
Posts: 8,698
Releases: 1643
On Forums: 10 years 4 months
Thanks: 99409 time(s)
Unknown


Mirror -
Register


Go to the top of the page
  Insert nick Quick quote
+Quote Post
post Dec 9 2017, 16:20:12
Post #3


***********
Group: Металариец
Posts: 1,679
Releases: 14
From: Казань
On Forums: 9 years 2 months
Thanks: 2122 time(s)
Russian Federation


Великолепие Сие сродни Апофеозу Войны. Войны против примитивно-мещанских замашек природы. Природы, что породила несусветный Парадокс, способный подстраивать под себя, искривляя взор. Зверь Просыпается.
Go to the top of the page
  Insert nick Quick quote
+Quote Post

Reply to this topicStart new topic
1 User(s) are reading this topic (1 Guests and 0 Anonymous Users)
0 Members:

 



- Lo-Fi Version Support form
Copyrights and abuse reports form
Time is now: 10th December 2018 - 18:07:50