Welcome Guest ( Log In | Register )

> Alvenrad - Heer (2017), Folk/Black Metal
post Dec 7 2017, 15:00:24
Post #1

Serial Uploader
Group Icon
Group: V.I.P
Posts: 33,061
Releases: 31346
From: Lithuania
On Forums: 10 years 3 months
Thanks: 358593 time(s)
Lithuania


(IMG:https://metalarea.org/images/audiocovers/2017_Dec/acov_tid298944_thumb.jpg)

*Artist: Alvenrad
*Album: Heer
*Year: 2017
*Genre: Folk/Black Metal
*Country: Netherlands (IMG:https://metalarea.org/forum/style_images/flags/Netherlands.png)
*Format: mp3@CBR320kbps
*Size: 106MB

Tracklist:
01. De Hoogzit
02. De Raven Wodans
03. Dagen Gaans Heen
04. De Zonne-Ever
05. Boom Des Gouds
06. De Herder
07. Fallisch
08. Minneschemering
09. De Groene Tempel
10. Omheind
11. Foreest In Tweelicht '17 (Bonus Track)
******************************
Total playing time: 45:47






Technical info
(IMG:https://metalarea.org/images/spectrogram/2017_Dec/dccfa8b55b65aba10bd7611893126838.png)
Input File: 02. De Raven Wodans.mp3
Channels : 2
Sample Rate : 44100
Precision : 16-bit
Duration : 00:05:37.90 = 14901478 samples = 25342.6 CDDA sectors
File Size : 13.7M
Bit Rate : 324k
Sample Encoding: MPEG audio (layer I, II or III)
Comments :
Title=De Raven Wodans
Artist=Alvenrad
Album=Heer
Tracknumber=2/11
Year=2017
Genre=17
Discnumber=1/1



Register


Go to the top of the page
  Insert nick Quick quote
+Quote Post
 
Start new topic
Replies (1 - 4)
post Dec 7 2017, 15:43:55
Post #2

Аннигилятор пивА
Group Icon
Group: V.I.P
Posts: 48,825
Releases: 14936
From: Koenigsberg - TILZIT
On Forums: 12 years 3 months
Thanks: 327217 time(s)
Russian Federation


Progressive Metal/Rock
320/96mb
Register


Thanks:
Go to the top of the page
  Insert nick Quick quote
+Quote Post
post Dec 7 2017, 17:06:54
Post #3

Девять Литров
*********
Group: Металариец
Posts: 971
Releases: 37
From: великий город Питер
On Forums: 12 years 9 months
Thanks: 1780 time(s)
Russian Federation


ни фолка, ни блэка не замечено совсем.... что-то непонятное с закосом под семидесятые
Go to the top of the page
  Insert nick Quick quote
+Quote Post
post Dec 7 2017, 19:36:18
Post #4

Ёлд ХеллоВяйне
Group Icon
Group: V.I.P
Posts: 25,989
Releases: 130
From: Питер
On Forums: 11 years 10 months
Thanks: 14372 time(s)
Russian Federation




А то БК снова пустой.

QUOTE(AlexCrazy @ 7th December 2017 - 19:06:54) *
ни фолка, ни блэка не замечено совсем


+1.
Go to the top of the page
  Insert nick Quick quote
+Quote Post
post Dec 11 2017, 01:07:57
Post #5

Победитель судьбы
**************
Group: Металариец
Posts: 5,070
Releases: 0
From: Страны Мамонтов
On Forums: 11 years 7 months
Thanks: 1739 time(s)
Antarctica


Тем не менее, материал лихой и фееричный, а музицирование в Boom Des Gouds заставляет встать и снять шляпу
Go to the top of the page
  Insert nick Quick quote
+Quote Post

Reply to this topicStart new topic
1 User(s) are reading this topic (1 Guests and 0 Anonymous Users)
0 Members:

 



- Lo-Fi Version Support form
Copyrights and abuse reports form
Time is now: 21st September 2018 - 07:20:17