Welcome Guest ( Log In | Register )

> All Will Know - Infinitas (2017), Modern Melodic Death Metal
post Dec 7 2017, 15:05:50
Post #1

Serial Uploader
Group Icon
Group: V.I.P
Posts: 33,389
Releases: 31659
From: Lithuania
On Forums: 10 years 6 months
Thanks: 361681 time(s)
Lithuania


(IMG:https://metalarea.org/images/audiocovers/2017_Dec/acov_tid298945_thumb.jpg)

*Artist: All Will Know
*Album: Infinitas
*Year: 2017
*Genre: Modern Melodic Death Metal
*Country: Germany (IMG:https://metalarea.org/forum/style_images/flags/Germany.png)
*Format: mp3@CBR320kbps
*Size: 134MB

Tracklist:
01. Behind Your Mask
02. Dead World
03. This Circle Never Ends
04. Age Of Paranoia
05. Beyond The Tears
06. Stain The White
07. Ruins
08. From Desires To ...
09. Cold Realities
10. Vicious Destiny
11. Waves
12. So Long
13. Deeper Into Time
******************************
Total playing time: 58:12



Technical info
(IMG:https://metalarea.org/images/spectrogram/2017_Dec/fda2f67829face042352798e71575d36.png)
Input File: 02. Dead World.mp3
Channels : 2
Sample Rate : 44100
Precision : 16-bit
Duration : 00:04:41.94 = 12433686 samples = 21145.7 CDDA sectors
File Size : 11.3M
Bit Rate : 322k
Sample Encoding: MPEG audio (layer I, II or III)
Comments :
Title=Dead World
Artist=All Will Know
Album=Infinitas
Tracknumber=2/13
Year=2017
Genre=9
Discnumber=1/1



Register


Go to the top of the page
  Insert nick Quick quote
+Quote Post
 
Start new topic
Replies (1 - 3)
post Dec 7 2017, 17:00:08
Post #2

MDM-Thrash Metal
**************
Group: Металариец
Posts: 7,297
Releases: 423
From: Одесса
On Forums: 11 years 4 months
Thanks: 13872 time(s)
Ukraine


https://www.youtube.com/watch?v=nVEp7QVt7AY

В музыкальном плане - ни разу не мелодез!
Go to the top of the page
  Insert nick Quick quote
+Quote Post
post Dec 8 2017, 20:57:31
Post #3

Ъ
**************
Group: Металариец
Posts: 9,273
Releases: 9
On Forums: 9 years 11 months
Thanks: 1777 time(s)
Sweden


Чистый вокал так себе, в остальном обычный третьесорт.
Go to the top of the page
  Insert nick Quick quote
+Quote Post
post Jan 26 2018, 19:04:59
Post #4

Волк без яблока
**************
Group: Металариец
Posts: 13,140
Releases: 104
From: Санкт-Петербург
On Forums: 12 years 2 months
Thanks: 14770 time(s)
Russian Federation


Немного уже не в настроение, но хороший модерн, получше предыдущего унылого их релиза.
Go to the top of the page
  Insert nick Quick quote
+Quote Post

Reply to this topicStart new topic
1 User(s) are reading this topic (1 Guests and 0 Anonymous Users)
0 Members:

 



- Lo-Fi Version Support form
Copyrights and abuse reports form
Time is now: 11th December 2018 - 14:06:36