Welcome Guest ( Log In | Register )

> Moonshine Oversight - Vanishing Lines (2017), Progressive Metal
post Dec 7 2017, 15:11:33
Post #1

Serial Uploader
Group Icon
Group: V.I.P
Posts: 31,478
Releases: 29810
From: Lithuania
On Forums: 9 years 8 months
Thanks: 342204 time(s)
Lithuania


(IMG:https://metalarea.org/images/audiocovers/2017_Dec/acov_tid298946_thumb.jpg)

*Artist: Moonshine Oversight
*Album: Vanishing Lines
*Year: 2017
*Genre: Progressive Metal
*Country: France (IMG:https://metalarea.org/forum/style_images/flags/France.png)
*Format: mp3@CBR320kbps
*Size: 112MB

Tracklist:
01. Moonrise
02. Vultures
03. Beyond The Stars
04. Mayflies
05. Moonrakers
06. Young Man
07. Sparkling Cut
08. Feel
09. Echoes Of Asymmetry
******************************
Total playing time: 52:53




Technical info
(IMG:https://metalarea.org/images/spectrogram/2017_Dec/2e450ec6cbabeccf5154cfcb83dc4e72.png)
Input File: 02. Vultures.mp3
Channels : 2
Sample Rate : 44100
Precision : 16-bit
Duration : 00:05:51.41 = 15497137 samples = 26355.7 CDDA sectors
File Size : 14.2M
Bit Rate : 323k
Sample Encoding: MPEG audio (layer I, II or III)
Comments :
Title=Vultures
Artist=Moonshine Oversight
Album=Vanishing Lines
Tracknumber=2/9
Year=2017
Genre=17
Discnumber=1/1



Register


Вернуться к началу страницы
  Insert nick Quick quote
+Цитировать сообщение
 
Создать новую тему
Replies (1 - 1)
post Dec 12 2017, 20:00:56
Post #2

21st Century Schizoid Man
**************
Group: Металариец
Posts: 4,862
Releases: 66
From: Moscow
On Forums: 9 years 9 months
Thanks: 3862 time(s)
Russian Federation


Классный альбом. Это скорее хэви с незначительными вкраплениями прога. Очень добротный материал.


Thanks:
Вернуться к началу страницы
  Insert nick Quick quote
+Цитировать сообщение

ОтветитьСоздать новую тему
1 User(s) are reading this topic (1 Guests and 0 Anonymous Users)
0 Members:

 



- Lo-Fi Version Support form
Copyrights and abuse reports form
Time is now: 24th February 2018 - 16:39:08