Welcome Guest ( Log In | Register )

 
Reply to this topicStart new topic
> The Prophecy²³ - Live Mosh Action [live] (2017), Thrash Metal (D4)
post Dec 7 2017, 15:16:56
Post #1

Правь статус, ####!111
**************
Group: Металариец
Posts: 14,280
Releases: 9911
From: Г.Харьков
On Forums: 6 years 4 months
Thanks: 162531 time(s)
Unknown


(IMG:http://metalarea.org/images/audiocovers/2017_Dec/acov_tid298947_thumb.jpg)

*Artist: The Prophecy²³
*Album: Live Mosh Action [live]
*Year: 2017
*Genre: Thrash Metal
*Country: Germany (IMG:http://metalarea.org/forum/style_images/flags/Germany.png)
*Format: mp3@CBR320kbps
*Size: 111MB

Tracklist:
01. Tough, Cool and Here to Mosh
02. Brutal Thrash Maniacs
03. Untrue to the Bone
04. Pit Laserbeam
05. A Backpack Full of Fleshsnacks
06. Home Is Where You Shred
07. Tape Trading Like a Boss
08. From the Basement to the Pit
09. Surf Nazis Must Die
10. Green Machine Laser Beam
11. Party Like It's '84
12. No Beer - What a Mess
13. The Ballad of Old School Metal
******************************
Total playing time: 52:44



Extended info


Technical info
(IMG:http://metalarea.org/images/spectrogram/2017_Dec/29699819a22fecbd732c9d1bd9de4d23.png)
Input File: 2 Brutal Thrash Maniacs (Live).mp3
Channels : 2
Sample Rate : 44100
Precision : 16-bit
Duration : 00:04:37.19 = 12223991 samples = 20789.1 CDDA sectors
File Size : 11.2M
Bit Rate : 323k
Sample Encoding: MPEG audio (layer I, II or III)
Comments :
Title=Brutal Thrash Maniacs (Live)
Artist=THE PROPHECY 23
Album=Live Mosh Action
Tracknumber=2/13
Year=2017
Genre=17
Discnumber=1/1



Register


Go to the top of the page
  Insert nick Quick quote
+Quote Post

Reply to this topicStart new topic
1 User(s) are reading this topic (1 Guests and 0 Anonymous Users)
0 Members:

 



- Lo-Fi Version Support form
Copyrights and abuse reports form
Time is now: 21st September 2018 - 06:39:30