Welcome Guest ( Log In | Register )

 
Reply to this topicStart new topic
> Schwarzer Engel - Sinnflut [ep] (2017), Symphonic Gothic Metal (D7)
post Dec 7 2017, 15:18:16
Post #1

Serial Uploader
Group Icon
Group: V.I.P
Posts: 33,061
Releases: 31346
From: Lithuania
On Forums: 10 years 3 months
Thanks: 358594 time(s)
Lithuania


(IMG:https://metalarea.org/images/audiocovers/2017_Dec/acov_tid298948_thumb.jpg)

*Artist: Schwarzer Engel
*Album: Sinnflut [ep]
*Year: 2017
*Genre: Symphonic Gothic Metal
*Country: Germany (IMG:https://metalarea.org/forum/style_images/flags/Germany.png)
*Format: mp3@CBR320kbps
*Size: 30MB

Tracklist:
01. Sinnflut
02. Futter Für Die See
03. Requiem (Piano-Version Feat. El Friede)
04. Sinnflut (Club-Remix)
******************************
Total playing time: 14:12

(IMG:https://metalarea.org/images/myspace.png)

(IMG:https://metalarea.org/images/youtube.png)

Technical info
(IMG:https://metalarea.org/images/spectrogram/2017_Dec/70d6ec03a731dbab03300b7c04a98001.png)
Input File: 02. Futter F?r Die See.mp3
Channels : 2
Sample Rate : 44100
Precision : 16-bit
Duration : 00:03:18.76 = 8765360 samples = 14907.1 CDDA sectors
File Size : 8.00M
Bit Rate : 322k
Sample Encoding: MPEG audio (layer I, II or III)
Comments :
Title=Futter FГјr Die See
Artist=Schwarzer Engel
Album=Sinnflut
Tracknumber=2/4
Year=2017
Genre=17
Discnumber=1/1



Register


Go to the top of the page
  Insert nick Quick quote
+Quote Post

Reply to this topicStart new topic
1 User(s) are reading this topic (1 Guests and 0 Anonymous Users)
0 Members:

 



- Lo-Fi Version Support form
Copyrights and abuse reports form
Time is now: 21st September 2018 - 07:45:37