Welcome Guest ( Log In | Register )

 
ОтветитьСоздать новую тему
> Throne - Consecrates (2017), Sludge/Stoner/Southern Metal (D13)
post Dec 7 2017, 15:24:07
Post #1

Serial Uploader
Group Icon
Group: V.I.P
Posts: 32,079
Releases: 30394
From: Lithuania
On Forums: 9 years 10 months
Thanks: 349704 time(s)
Lithuania


(IMG:https://metalarea.org/images/audiocovers/2017_Dec/acov_tid298949_thumb.jpg)

*Artist: Throne
*Album: Consecrates
*Year: 2017
*Genre: Sludge/Stoner/Southern Metal
*Country: Italy (IMG:https://metalarea.org/forum/style_images/flags/Italy.png)
*Format: mp3@CBR320kbps
*Size: 106MB

Tracklist:
01. Sister Abigail
02. Lethal Dose
03. Codex Gigas
04. There's No Murder In Paradise
05. Baba-Jaga
06. V.I.R.
07. Lazarus Taxon
******************************
Total playing time: 49:27




Technical info
(IMG:https://metalarea.org/images/spectrogram/2017_Dec/b07978abe58ddb10afd40c566141f8fa.png)
Input File: 02. Lethal Dose.mp3
Channels : 2
Sample Rate : 44100
Precision : 16-bit
Duration : 00:07:48.37 = 20655117 samples = 35127.8 CDDA sectors
File Size : 18.9M
Bit Rate : 323k
Sample Encoding: MPEG audio (layer I, II or III)
Comments :
Title=Lethal Dose
Artist=Throne
Album=Consecrates
Tracknumber=2/7
Year=2017
Genre=9
Discnumber=1/1



Register


Вернуться к началу страницы
  Insert nick Quick quote
+Цитировать сообщение

ОтветитьСоздать новую тему
2 User(s) are reading this topic (2 Guests and 0 Anonymous Users)
0 Members:

 



- Lo-Fi Version Support form
Copyrights and abuse reports form
Time is now: 21st April 2018 - 23:59:17