Welcome Guest ( Log In | Register )

> Suicide Wraith & Necrolytic Goat Converter & Uncanny Reality - Shades Of Sorrow [split] (2017), Black Metal | Depressive Black Metal | Black Metal (D4)(D4)
post Dec 7 2017, 15:39:32
Post #1

Serial Uploader
Group Icon
Group: V.I.P
Posts: 32,079
Releases: 30394
From: Lithuania
On Forums: 9 years 10 months
Thanks: 349704 time(s)
Lithuania


(IMG:https://metalarea.org/images/audiocovers/2017_Dec/acov_tid298950_thumb.jpg)

*Artist: Suicide Wraith & Necrolytic Goat Converter & Uncanny Reality
*Album: Shades Of Sorrow [split]
*Year: 2017
*Genre: Black Metal | Depressive Black Metal | Black Metal
*Country: United Kingdom (IMG:https://metalarea.org/forum/style_images/flags/United%20Kingdom.png) | United States (IMG:https://metalarea.org/forum/style_images/flags/United%20States.png) | United Kingdom (IMG:https://metalarea.org/forum/style_images/flags/United%20Kingdom.png)
*Format: mp3@CBR320kbps
*Size: 117MB

Tracklist:
Suicide Wraith:
01. Open Eyes, Open Veins
02. Far From Grace
03. Suicide Messiah
Necrolytic Goat Converter:
04. An Ill-Conceived Ritual
05. Hordes Of Death
06. Fierce Cvlt
Uncanny Reality:
07. Dipsomania
08. Black Clouds Over England
09. The Ghost Of An Uninvited Guest
******************************
Total playing time: 50:34






Technical info
(IMG:https://metalarea.org/images/spectrogram/2017_Dec/bdd1f77c7a0deda014a2c9a3f89b99db.png)
Input File: 02. Far from Grace.mp3
Channels : 2
Sample Rate : 44100
Precision : 16-bit
Duration : 00:04:56.83 = 13090379 samples = 22262.5 CDDA sectors
File Size : 12.0M
Bit Rate : 324k
Sample Encoding: MPEG audio (layer I, II or III)
Comments :
Title=Far from Grace
Artist=Suicide Wraith
Album=Shades of Sorrow
Tracknumber=2/9
Year=2017
Genre=9
Discnumber=1/1



Register


Вернуться к началу страницы
  Insert nick Quick quote
+Цитировать сообщение
 
Создать новую тему
Replies (1 - 1)
post Dec 8 2017, 06:28:04
Post #2

..ще до загибелі
**********
Group: Металариец
Posts: 1,087
Releases: 0
From: Мати Руських Міст
On Forums: 7 years 1 month
Thanks: 826 time(s)
American Samoa


ходят слухи, че чем больше понавешанных болтунов на ковре - тем депрессивей депрессив. а коли сплит аж на целое трио, так и дереву недолго до слома.

о, зато корпспейнт по моде 2017
(IMG:https://www.metal-archives.com/images/3/5/4/0/3540419914_photo.jpg)


Thanks:
Вернуться к началу страницы
  Insert nick Quick quote
+Цитировать сообщение

ОтветитьСоздать новую тему
2 User(s) are reading this topic (2 Guests and 0 Anonymous Users)
0 Members:

 



- Lo-Fi Version Support form
Copyrights and abuse reports form
Time is now: 21st April 2018 - 23:56:44