Welcome Guest ( Log In | Register )

> Ritual Death & Aosoth - Ritual Death/Aosoth [split] (2017), Black Metal | Black Metal (D4)
post Dec 7 2017, 15:47:57
Post #1

Маньяк
**********
Group: Металариец
Posts: 1,209
Releases: 929
From: Prešov
On Forums: 4 years 1 week
Thanks: 21357 time(s)
Slovakia


(IMG:http://metalarea.org/images/audiocovers/2017_Dec/acov_tid298951_thumb.jpg)

*Artist: Ritual Death & Aosoth
*Album: Ritual Death/Aosoth [split]
*Year: 2017
*Genre: Black Metal | Black Metal
*Country: Norway (IMG:http://metalarea.org/forum/style_images/flags/Norway.png) | France (IMG:http://metalarea.org/forum/style_images/flags/France.png)
*Format: mp3@VBR245kbps
*Size: 20MB

Tracklist:
Ritual Death:
1.Blood Oblation 03:18
Aosoth:
2.Thieves of Virtues 06:29
******************************
Total playing time: 9:47



Extended info
Terratur Possessions ‎– Voice032
Vinyl, 7"


Technical info
(IMG:http://metalarea.org/images/spectrogram/2017_Dec/3682a2a610932291400b2b6f9b142820.png)
Input File: 01. Ritual Death - Blood Oblation.mp3
Channels : 2
Sample Rate : 44100
Precision : 16-bit
Duration : 00:03:11.45 = 8442989 samples = 14358.8 CDDA sectors
File Size : 6.54M
Bit Rate : 273k
Sample Encoding: MPEG audio (layer I, II or III)
Comments :
Title=Blood Oblation
Artist=Ritual Death
Album=Ritual Death / Aosoth
Tracknumber=01/02
Year=2017
Genre=Black Metal
Discnumber=1/1



Register


Вернуться к началу страницы
  Insert nick Quick quote
+Цитировать сообщение
 
Создать новую тему
Replies (1 - 1)
post Dec 7 2017, 16:12:56
Post #2

filed under desecration
Group Icon
Group: S-moderation team
Posts: 8,674
Releases: 1643
On Forums: 9 years 8 months
Thanks: 97997 time(s)
Unknown


Mirror -
Register


Вернуться к началу страницы
  Insert nick Quick quote
+Цитировать сообщение

ОтветитьСоздать новую тему
2 User(s) are reading this topic (2 Guests and 0 Anonymous Users)
0 Members:

 



- Lo-Fi Version Support form
Copyrights and abuse reports form
Time is now: 22nd April 2018 - 00:01:11