Welcome Guest ( Log In | Register )

> Stretch Heart - Stretch Heart (2017), Progressive Metal
post Dec 7 2017, 15:53:49
Post #1

Serial Uploader
Group Icon
Group: V.I.P
Posts: 32,737
Releases: 31035
From: Lithuania
On Forums: 10 years 2 weeks
Thanks: 355815 time(s)
Lithuania


(IMG:https://metalarea.org/images/audiocovers/2017_Dec/acov_tid298952_thumb.jpg)

*Artist: Stretch Heart
*Album: Stretch Heart
*Year: 2017
*Genre: Progressive Metal
*Country: United States (IMG:https://metalarea.org/forum/style_images/flags/United%20States.png)
*Format: mp3@CBR320kbps
*Size: 106MB

Tracklist:
01. Dance Of Deceit
02. Sleep
03. Stretch Heart
04. Stuck In Love
05. Maneater
06. Cult Of Venus
07. In The Hall
08. Face The Truth
09. The Sands Of Time
******************************
Total playing time: 40:50



Technical info
(IMG:https://metalarea.org/images/spectrogram/2017_Dec/25ce23cb6fe12bd25c8f9da6493b8ba0.png)
Input File: 02. Sleep.mp3
Channels : 2
Sample Rate : 44100
Precision : 16-bit
Duration : 00:02:13.76 = 5898904 samples = 10032.1 CDDA sectors
File Size : 5.49M
Bit Rate : 329k
Sample Encoding: MPEG audio (layer I, II or III)
Comments :
Title=Sleep
Artist=Stretch Heart
Album=Stretch Heart
Tracknumber=2/9
Year=2017
Genre=9
Discnumber=1/1



Register


Go to the top of the page
  Insert nick Quick quote
+Quote Post
 
Start new topic
Replies (1 - 1)
post Dec 7 2017, 19:20:25
Post #2

21st Century Schizoid Man
**************
Group: Металариец
Posts: 5,151
Releases: 67
From: Moscow
On Forums: 10 years 1 month
Thanks: 4062 time(s)
Russian Federation







Два представленных на БК трэка очень разные: от прогрессив метал/рока до почти экстрим-прога.

Не, нафиг. Как-то на коленке всё сделано.


Thanks:
Go to the top of the page
  Insert nick Quick quote
+Quote Post

Reply to this topicStart new topic
1 User(s) are reading this topic (1 Guests and 0 Anonymous Users)
0 Members:

 



- Lo-Fi Version Support form
Copyrights and abuse reports form
Time is now: 25th June 2018 - 08:40:41