Welcome Guest ( Log In | Register )

> Stretch Heart - Stretch Heart (2017), Progressive Metal
post Dec 7 2017, 15:53:49
Post #1

Serial Uploader
Group Icon
Group: V.I.P
Posts: 32,079
Releases: 30394
From: Lithuania
On Forums: 9 years 10 months
Thanks: 349704 time(s)
Lithuania


(IMG:https://metalarea.org/images/audiocovers/2017_Dec/acov_tid298952_thumb.jpg)

*Artist: Stretch Heart
*Album: Stretch Heart
*Year: 2017
*Genre: Progressive Metal
*Country: United States (IMG:https://metalarea.org/forum/style_images/flags/United%20States.png)
*Format: mp3@CBR320kbps
*Size: 106MB

Tracklist:
01. Dance Of Deceit
02. Sleep
03. Stretch Heart
04. Stuck In Love
05. Maneater
06. Cult Of Venus
07. In The Hall
08. Face The Truth
09. The Sands Of Time
******************************
Total playing time: 40:50



Technical info
(IMG:https://metalarea.org/images/spectrogram/2017_Dec/25ce23cb6fe12bd25c8f9da6493b8ba0.png)
Input File: 02. Sleep.mp3
Channels : 2
Sample Rate : 44100
Precision : 16-bit
Duration : 00:02:13.76 = 5898904 samples = 10032.1 CDDA sectors
File Size : 5.49M
Bit Rate : 329k
Sample Encoding: MPEG audio (layer I, II or III)
Comments :
Title=Sleep
Artist=Stretch Heart
Album=Stretch Heart
Tracknumber=2/9
Year=2017
Genre=9
Discnumber=1/1



Register


Вернуться к началу страницы
  Insert nick Quick quote
+Цитировать сообщение
 
Создать новую тему
Replies (1 - 1)
post Dec 7 2017, 19:20:25
Post #2

21st Century Schizoid Man
**************
Group: Металариец
Posts: 5,009
Releases: 66
From: Moscow
On Forums: 9 years 11 months
Thanks: 3964 time(s)
Russian Federation







Два представленных на БК трэка очень разные: от прогрессив метал/рока до почти экстрим-прога.

Не, нафиг. Как-то на коленке всё сделано.


Thanks:
Вернуться к началу страницы
  Insert nick Quick quote
+Цитировать сообщение

ОтветитьСоздать новую тему
2 User(s) are reading this topic (2 Guests and 0 Anonymous Users)
0 Members:

 



- Lo-Fi Version Support form
Copyrights and abuse reports form
Time is now: 22nd April 2018 - 00:04:42