Welcome Guest ( Log In | Register )

 
ОтветитьСоздать новую тему
> Crown Of Twilight - Thousand Wounds - Structures Of Paradox (2017), Atmospheric Black Metal/Ambient
post Dec 7 2017, 16:17:43
Post #1

Serial Uploader
Group Icon
Group: V.I.P
Posts: 31,478
Releases: 29810
From: Lithuania
On Forums: 9 years 8 months
Thanks: 342206 time(s)
Lithuania


(IMG:https://metalarea.org/images/audiocovers/2017_Dec/acov_tid298953_thumb.png)

*Artist: Crown Of Twilight
*Album: Thousand Wounds - Structures Of Paradox
*Year: 2017
*Genre: Atmospheric Black Metal/Ambient
*Country: Poland (IMG:https://metalarea.org/forum/style_images/flags/Poland.png)
*Format: mp3@CBR320kbps
*Size: 98MB

Tracklist:
01. Conscious Deterioration Of Life 09:32
02. Heart Of The Phoenix 08:51
03. Shrouded Ones 07:54
04. Structures Of Paradox 09:10
05. The Hand 07:02
******************************
Total playing time: 42:29



Preview 3


Technical info
(IMG:https://metalarea.org/images/spectrogram/2017_Dec/3bd7ced26bcedce471afcc692d02c6da.png)
Input File: 02. Heart of the Phoenix.mp3
Channels : 2
Sample Rate : 44100
Precision : 16-bit
Duration : 00:08:51.80 = 23452292 samples = 39884.9 CDDA sectors
File Size : 21.3M
Bit Rate : 321k
Sample Encoding: MPEG audio (layer I, II or III)
Comments :
Title=Heart of the Phoenix
Artist=Crown of Twilight
Album=Thousand Wounds - Structures of Paradox
Tracknumber=2
Year=2017



Register


Вернуться к началу страницы
  Insert nick Quick quote
+Цитировать сообщение

ОтветитьСоздать новую тему
1 User(s) are reading this topic (1 Guests and 0 Anonymous Users)
0 Members:

 



- Lo-Fi Version Support form
Copyrights and abuse reports form
Time is now: 24th February 2018 - 16:46:12