Welcome Guest ( Log In | Register )

 
Reply to this topicStart new topic
> Maleficent - NP-I [compilation] (2017), Raw Black Metal
post Dec 7 2017, 16:24:35
Post #1

Маньяк
**********
Group: Металариец
Posts: 1,447
Releases: 1131
From: Prešov
On Forums: 4 years 8 months
Thanks: 26628 time(s)
Slovakia


(IMG:http://metalarea.org/images/audiocovers/2017_Dec/acov_tid298955_thumb.jpg)

*Artist: Maleficent
*Album: NP-I [compilation]
*Year: 2017
*Genre: Raw Black Metal
*Country: United States (IMG:http://metalarea.org/forum/style_images/flags/United%20States.png)
*Format: mp3@VBR245kbps
*Size: 103MB

Tracklist:
1. As Wolves We Rise 05:30
2. Maleficent 09:59
3. Grim, Pride, and Death 05:26
4. S 04:58
5. Rebirth of Darkness and Hate 05:00
6. Maleficent (Despair) 03:02
7. Compelled to Self Mutilation (Rehearsal MMX) 11:17
8. Maleficent (Rehearsal MMX) 11:05
******************************
Total playing time: 56:17



Extended info
Night of the Palemoon - NP-I
Tape limited to 12 copies.
Tape-rip


Technical info
(IMG:http://metalarea.org/images/spectrogram/2017_Dec/3464a2f8ce5018c33bf71dade12c2289.png)
Input File: 03. Grim, Pride, And Death.mp3
Channels : 2
Sample Rate : 44100
Precision : 16-bit
Duration : 00:05:30.68 = 14583164 samples = 24801.3 CDDA sectors
File Size : 10.2M
Bit Rate : 246k
Sample Encoding: MPEG audio (layer I, II or III)
Comments :
Title=Grim, Pride, And Death
Artist=Maleficent
Album=NP-I
Tracknumber=03/08
Year=2017
Genre=Black Metal
Discnumber=1/1



Register


Go to the top of the page
  Insert nick Quick quote
+Quote Post

Reply to this topicStart new topic
1 User(s) are reading this topic (1 Guests and 0 Anonymous Users)
0 Members:

 



- Lo-Fi Version Support form
Copyrights and abuse reports form
Time is now: 10th December 2018 - 18:26:19