Welcome Guest ( Log In | Register )

> Inishmore - The Lemming Project (2015), Power Metal (D4)
post Dec 7 2017, 16:51:25
Post #1

Serial Uploader
Group Icon
Group: V.I.P
Posts: 32,737
Releases: 31035
From: Lithuania
On Forums: 10 years 2 weeks
Thanks: 355815 time(s)
Lithuania


(IMG:https://metalarea.org/images/audiocovers/2017_Dec/acov_tid298956_thumb.jpg)

*Artist: Inishmore
*Album: The Lemming Project
*Year: 2015
*Genre: Power Metal
*Country: Switzerland (IMG:https://metalarea.org/forum/style_images/flags/Switzerland.png)
*Format: mp3@CBR320kbps
*Size: 124MB

Tracklist:
01. Cup Of Lies 04:13
02. Merciful 05:56
03. Better Off Dead 03:00
04. Finally A Love Song 05:55
05. Part Of The Game 04:42
06. Manifest 04:43
07. Eternal Wanderer 04:55
08. Red Lake 05:18
09. Where Lonely Shadows Walk 04:16
10. The Lemming Project 12:48
11. Where Lonely Shadows Walk (Acoustic Version) 03:41
******************************
Total playing time: 59:27

(IMG:https://metalarea.org/images/myspace.png)

(IMG:https://metalarea.org/images/youtube.png)

Extended info
Scene-rip


Technical info
(IMG:https://metalarea.org/images/spectrogram/2017_Dec/4c79fca30540f764f61f622588396024.png)
Input File: 06-inishmore-manifest-65bfbeec.mp3
Channels : 2
Sample Rate : 44100
Precision : 16-bit
Duration : 00:04:43.64 = 12508568 samples = 21273.1 CDDA sectors
File Size : 11.3M
Bit Rate : 320k
Sample Encoding: MPEG audio (layer I, II or III)
Comments :
Title=Manifest
Artist=Inishmore
Album=The Lemming Project
Tracknumber=6/11
Year=2016
Genre=9



Register


Go to the top of the page
  Insert nick Quick quote
+Quote Post
 
Start new topic
Replies (1 - 2)
post Dec 7 2017, 18:06:56
Post #2

Наливай!
**************
Group: Металариец
Posts: 5,028
Releases: 27
From: Москва-Бибирево
On Forums: 10 years 3 months
Thanks: 2334 time(s)
Russian Federation


Бабу взяли на вокал, вот лабухи.
Go to the top of the page
  Insert nick Quick quote
+Quote Post
post Dec 11 2017, 15:55:05
Post #3

Перевозчик
**************
Group: Металариец
Posts: 2,726
Releases: 0
On Forums: 9 years 11 months
Thanks: 550 time(s)
Russian Federation


Ну, во-первых, поёт не только баба. Во-вторых, поёт она довольно неплохо и, что самое главное, без оперных завываний. По музыке, на первый взгляд, скучновато, особенно для тега "павер". Но будем посмотреть.
Go to the top of the page
  Insert nick Quick quote
+Quote Post

Reply to this topicStart new topic
1 User(s) are reading this topic (1 Guests and 0 Anonymous Users)
0 Members:

 



- Lo-Fi Version Support form
Copyrights and abuse reports form
Time is now: 25th June 2018 - 08:39:32