Welcome Guest ( Log In | Register )

> Galloping Shadow - Winters Web [demo] (2012), Raw Black Metal/Punk
post Dec 7 2017, 17:14:32
Post #1

𝕻𝕬𝕹𝕬𝕮𝕰𝕬
******
Group: Металариец
Posts: 506
Releases: 284
On Forums: 5 years 10 months
Thanks: 3726 time(s)
Unknown


(IMG:http://metalarea.org/images/audiocovers/2017_Dec/acov_tid298957_thumb.jpg)

*Artist: Galloping Shadow
*Album: Winters Web [demo]
*Year: 2012
*Genre: Raw Black Metal/Punk
*Country: United States (IMG:http://metalarea.org/forum/style_images/flags/United%20States.png)
*Format: mp3@CBR192kbps
*Size: 29MB

Tracklist:
1. Winters Web 02:39
2. The Eternal Hate 03:44
3. All The Shades Of White 01:41
4. I Fell 01:45
5. Blood Night 04:48
6. Anxious Star 02:22
7. Black Magic 02:44
8. Myth Of The Sun 02:02
******************************
Total playing time: 21:45

(IMG:http://metalarea.org/images/youtube.png)

Technical info
(IMG:http://metalarea.org/images/spectrogram/2017_Dec/8314a3d6082dd619d63c8390ead0dc75.png)
Input File: 02 - The Eternal Hate.mp3
Channels : 2
Sample Rate : 44100
Precision : 16-bit
Duration : 00:03:44.45 = 9898069 samples = 16833.5 CDDA sectors
File Size : 5.39M
Bit Rate : 192k
Sample Encoding: MPEG audio (layer I, II or III)
Comments :
Title=The Eternal Hate
Artist=Galloping Shadow
Album=Winters Web
Tracknumber=02
Year=2012
Genre=Black Metal



Register


Вернуться к началу страницы
  Insert nick Quick quote
+Цитировать сообщение
 
Создать новую тему
Replies (1 - 2)
post Dec 7 2017, 17:46:28
Post #2

а ты попал в даунтаун
********
Group: Металариец
Posts: 883
Releases: 45
From: Москва
On Forums: 9 years 4 hours
Thanks: 2668 time(s)
Russian Federation


(IMG:style_emoticons/default/17.gif) Его здесь всё ещё не было? У меня аж с 12го года на харде лежал...
Вернуться к началу страницы
  Insert nick Quick quote
+Цитировать сообщение
post Dec 7 2017, 18:37:31
Post #3

Шесть Литров
******
Group: Металариец
Posts: 570
Releases: 6
On Forums: 7 years 7 months
Thanks: 911 time(s)
Unknown


ЦИТАТА(acerbus @ Dec 7 2017, 18:46:28) *
(IMG:style_emoticons/default/17.gif) Его здесь всё ещё не было? У меня аж с 12го года на харде лежал...


было, в файнде валялось.
я даже помню, откуда оно у меня на винте взялось.

вот кстати оттуда же неплохая вещь, никто не удосужился сюда перетащить.


Thanks:
(1) stub888,
Вернуться к началу страницы
  Insert nick Quick quote
+Цитировать сообщение

ОтветитьСоздать новую тему
2 User(s) are reading this topic (2 Guests and 0 Anonymous Users)
0 Members:

 



- Lo-Fi Version Support form
Copyrights and abuse reports form
Time is now: 22nd April 2018 - 00:00:55