Welcome Guest ( Log In | Register )

> 

Здесь релизы с живыми прямыми ссылками на lossless

> Survival Instinct - Hellocaust (2017), Thrash Metal
post Dec 7 2017, 18:18:05
Post #1

Правь статус, ####!111
**************
Group: Металариец
Posts: 12,648
Releases: 9062
From: Г.Харьков
On Forums: 5 years 11 months
Thanks: 146523 time(s)
Unknown


(IMG:http://metalarea.org/images/audiocovers/2017_Dec/acov_tid298961_thumb.jpg)

*Artist: Survival Instinct
*Album: Hellocaust
*Year: 2017
*Genre: Thrash Metal
*Country: Canada (IMG:http://metalarea.org/forum/style_images/flags/Canada.png)
*Format: mp3@CBR320kbps
*Size: 73MB

Tracklist:
1. Antichrist Vatican 03:37
2. Ascension of the Beast 04:46
3. Emptiness 04:06
4. Eternal Brutality 03:59
5. Faking Life 03:09
6. Hellocaust 03:08
7. I Will Never Die 04:02
8. Rotten 03:03
9. Tell 'em 04:51
******************************
Total playing time: 34:41




Extended info
Scene
Martin Guitar/Vocal
Alexis Drums/Vocal
William Bass
L'Wiff Guitar

Этот альбом в 2017 году вышел на лэйбле PRC Music с другим названием и из 9 треков


Technical info
(IMG:http://metalarea.org/images/spectrogram/2017_Dec/5eed42b729eafc5f4f396b12a0042a90.png)
Input File: 02-survival_instinct-ascension_of_the_beast-251a2736.mp3
Channels : 2
Sample Rate : 44100
Precision : 16-bit
Duration : 00:04:46.41 = 12630681 samples = 21480.8 CDDA sectors
File Size : 11.5M
Bit Rate : 320k
Sample Encoding: MPEG audio (layer I, II or III)
Comments :
Title=Ascension of the beast
Artist=Survival Instinct
Album=Hellocaust
Tracknumber=2/9
Year=2017
Genre=22



Register


Вернуться к началу страницы
  Insert nick Quick quote
+Цитировать сообщение
 
Создать новую тему
Replies (1 - 1)
post Jan 31 2018, 18:07:35
Post #2

Old School Metal
**************
Group: Металариец
Posts: 2,505
Releases: 0
From: г. Минск
On Forums: 9 years 1 month
Thanks: 5025 time(s)
Belarus


Survival Instinct - Hellocaust (2017, PRC Music)


(IMG:http://i103.fastpic.ru/big/2018/0131/b2/4259411a0e7886c6edc01606aeffccb2.jpg)


Lossless: FLAC (image+.cue+.log) + Covers

Register
Вернуться к началу страницы
  Insert nick Quick quote
+Цитировать сообщение

ОтветитьСоздать новую тему
2 User(s) are reading this topic (2 Guests and 0 Anonymous Users)
0 Members:

 



- Lo-Fi Version Support form
Copyrights and abuse reports form
Time is now: 22nd April 2018 - 00:02:00