Welcome Guest ( Log In | Register )

> И неформату есть предел.

Рэп/хип-хоп/шансон/поп удаляются. Для них есть свои порталы.

> Jess And The Ancient Ones - The Horse And Other Weird Tales (2017), Occult/Psychedelic Rock (D6)
post Dec 7 2017, 20:03:03
Post #1

ЗмееЛев
******
Group: Металариец
Posts: 657
Releases: 17
On Forums: 7 years 4 months
Thanks: 1506 time(s)
Russian Federation


(IMG:http://metalarea.org/images/audiocovers/2017_Dec/acov_tid298965_thumb.jpg)

*Artist: Jess And The Ancient Ones
*Album: The Horse And Other Weird Tales
*Year: 2017
*Genre: Occult/Psychedelic Rock
*Country: Finland (IMG:http://metalarea.org/forum/style_images/flags/Finland.png)
*Format: mp3@CBR320kbps
*Size: 79MB

Tracklist:
1. Death Is The Doors
2. Shining
3. Your Exploding Heads
4. You And Eyes
5. Radio Aquarius
6. Return To Hallucinate
7. (Here Comes) The Rainbow Mouth
8. Minotaure
9. Anyway The Minds Flow
******************************
Total playing time: 34:31

Extended info


Technical info
(IMG:http://metalarea.org/images/spectrogram/2017_Dec/f7fb3e08ce9e952c794f1796d40fdb53.png)
Input File: 01 Death Is the Doors .mp3
Channels : 2
Sample Rate : 44100
Precision : 16-bit
Duration : 00:03:33.26 = 9404766 samples = 15994.5 CDDA sectors
File Size : 8.53M
Bit Rate : 320k
Sample Encoding: MPEG audio (layer I, II or III)
Comments :
Title=Death Is the Doors
Artist=Jess and the Ancient Ones
Album=The Horse and Other Weird Tales
Tracknumber=1
Year=2017
Genre=Occult Rock



Register


Go to the top of the page
  Insert nick Quick quote
+Quote Post
 
Start new topic
Replies (1 - 2)
post Dec 8 2017, 02:19:13
Post #2

Шесть Литров
******
Group: Металариец
Posts: 633
Releases: 0
From: Харьков
On Forums: 8 years 10 months
Thanks: 207 time(s)
Ukraine


Хороший альбом.
Go to the top of the page
  Insert nick Quick quote
+Quote Post
post Dec 8 2017, 13:31:28
Post #3

Ω
Group Icon
Group: V.I.P
Posts: 6,476
Releases: 77
From: Kænugarður
On Forums: 12 years 4 days
Thanks: 9221 time(s)
Ukraine


Ну это уже совсем легкий рочок типа Purson. Мне больше нравилось, когда погитарнее было, Sulfur Giants и всё такое. Но вообще хорошо, да.
Go to the top of the page
  Insert nick Quick quote
+Quote Post

Reply to this topicStart new topic
1 User(s) are reading this topic (1 Guests and 0 Anonymous Users)
0 Members:

 



- Lo-Fi Version Support form
Copyrights and abuse reports form
Time is now: 19th August 2018 - 02:28:33