Welcome Guest ( Log In | Register )

> И неформату есть предел.

Рэп/хип-хоп/шансон/поп удаляются. Для них есть свои порталы.

 
ОтветитьСоздать новую тему
> Bad Sector - Selected. [compilation] (2017), Dark Ambient/Industrial (D18)
post Dec 8 2017, 08:41:28
Post #1

Девять Литров
*********
Group: Металариец
Posts: 907
Releases: 357
From: north korea
On Forums: 7 years 3 months
Thanks: 7578 time(s)
Italy


(IMG:http://metalarea.org/images/audiocovers/2017_Dec/acov_tid298985_thumb.jpg)

*Artist: Bad Sector
*Album: Selected. [compilation]
*Year: 2017
*Genre: Dark Ambient/Industrial
*Country: Italy (IMG:http://metalarea.org/forum/style_images/flags/Italy.png)
*Format: mp3@CBR320kbps
*Size: 186MB

Tracklist:
1. Rsaa 04:02
2. Mass 06:08
3. Carla 1977 05:58
4. Twistor Methods 05:54
5. Generate 04:06
6. April 12, 1961 05:20
7. June 16, 1963 04:32
8. Allineate Autovetture 04:11
9. Fornace Solare 04:21
10. Radial Body 2 06:56
11. CCEM 04:58
12. Gifts 04:21
13. Peaks 03:50
14. Electa 04:57
15. Honora 04:27
16. Motol 04:06
17. Stored 04:08
******************************
Total playing time: 1:22:15



Extended info
Selected tracks from Bad Sector's albums, 1995-2016.


Technical info
(IMG:http://metalarea.org/images/spectrogram/2017_Dec/2c59fd499b89d02e564c71fd634b6f45.png)
Input File: 13 Peaks.mp3
Channels : 2
Sample Rate : 44100
Precision : 16-bit
Duration : 00:03:50.61 = 10169813 samples = 17295.6 CDDA sectors
File Size : 9.22M
Bit Rate : 320k
Sample Encoding: MPEG audio (layer I, II or III)
Comments :
Title=Peaks
Artist=Bad Sector
Album=Selected.
Tracknumber=13
Year=2017



Register


Вернуться к началу страницы
  Insert nick Quick quote
+Цитировать сообщение

ОтветитьСоздать новую тему
1 User(s) are reading this topic (1 Guests and 0 Anonymous Users)
0 Members:

 



- Lo-Fi Version Support form
Copyrights and abuse reports form
Time is now: 19th February 2018 - 15:07:35