Welcome Guest ( Log In | Register )

> И неформату есть предел.

Рэп/хип-хоп/шансон/поп удаляются. Для них есть свои порталы.

> Tulpa - Fear Of Fades [ep] (2017), Blackened D-Beat
post Dec 8 2017, 19:53:23
Post #1

Правь статус, ####!616
**************
Group: Металариец
Posts: 4,398
Releases: 3004
From: 55°35’N 38°08’E
On Forums: 10 years 1 month
Thanks: 56372 time(s)
Unknown


(IMG:http://metalarea.org/images/audiocovers/2017_Dec/acov_tid299018_thumb.jpg)

*Artist: Tulpa
*Album: Fear Of Fades [ep]
*Year: 2017
*Genre: Blackened D-Beat
*Country: Italy (IMG:http://metalarea.org/forum/style_images/flags/Italy.png)
*Format: mp3@CBR320kbps
*Size: 34MB

Tracklist:
1.Nooatrophic 04:31
2.Inner Kyosaku 01:40
3.Fear Of Fades 04:41
4.Against The Stream 03:54
******************************
Total playing time: 14:46


(IMG:http://metalarea.org/images/youtube.png)


Extended info
Andrea Artusi - Bass (Domina Noctis, Fog, Dunkel Nacht, Whiskey Ritual)
Kyoo Nam Rossi - Drums (Domina Noctis, Forgotten Tomb, Whiskey Ritual, Willow at Moon, Dunkel Nacht)
Alessandro Coletta - Vocals, Guitars (Exhaustus, Morbid Upheaval, Uncreation)
Matteo Cordani - Guitars (Mother Augusta, Surge Assault, Satan Imperii)


Technical info
(IMG:http://metalarea.org/images/spectrogram/2017_Dec/67652b2b18e9d0e800d1382f7c1a7d59.png)
Input File: 01 Nooatrophic.mp3
Channels : 2
Sample Rate : 44100
Precision : 16-bit
Duration : 00:04:31.96 = 11993568 samples = 20397.2 CDDA sectors
File Size : 10.9M
Bit Rate : 322k
Sample Encoding: MPEG audio (layer I, II or III)
Comments :
Title=Nooatrophic
Artist=TULPA
Album=Fear Of Fades
Tracknumber=1
Year=2017
Genre=Blackened D-Beat



Register


Go to the top of the page
  Insert nick Quick quote
+Quote Post
 
Start new topic
Replies (1 - 1)
post Feb 6 2018, 12:37:35
Post #2

Мегаманьяк
***********
Group: Металариец
Posts: 1,583
Releases: 118
From: Omsk, Siberia
On Forums: 9 years 4 months
Thanks: 2520 time(s)
Russian Federation


newer links (320):
Register
Go to the top of the page
  Insert nick Quick quote
+Quote Post

Reply to this topicStart new topic
1 User(s) are reading this topic (1 Guests and 0 Anonymous Users)
0 Members:

 



- Lo-Fi Version Support form
Copyrights and abuse reports form
Time is now: 19th August 2018 - 08:58:49