Welcome Guest ( Log In | Register )

> И неформату есть предел.

Рэп/хип-хоп/шансон/поп удаляются. Для них есть свои порталы.

 
Reply to this topicStart new topic
> Laibach - Also Sprach Zarathustra (2017), Industrial, Modern Classical (D13)
post Dec 10 2017, 12:03:27
Post #1

Девять Литров
*********
Group: Металариец
Posts: 989
Releases: 370
On Forums: 7 years 8 months
Thanks: 8145 time(s)
North Korea


(IMG:http://metalarea.org/images/audiocovers/2017_Dec/acov_tid299077_thumb.jpg)

*Artist: Laibach
*Album: Also Sprach Zarathustra
*Year: 2017
*Genre: Industrial, Modern Classical
*Country: Slovenia (IMG:http://metalarea.org/forum/style_images/flags/Slovenia.png)
*Format: mp3@CBR320kbps
*Size: 120MB

Tracklist:
01. Vor Sonnen-Untergang 02:08
02. Ein Untergang 04:00
03. Die Unschuld I 02:44
04. Ein Verkündiger 04:38
05. Von Gipfel zu Gipfel 05:10
06. Das Glück 04:32
07. Das Nachtlied I 03:23
08. Das Nachtlied II 03:39
09. Die Unschuld II 03:45
10. Als Geist 05:45
11. Vor Sonnen-Aufgang 05:58
12. Von Den Drei Verwandlungen 07:28
******************************
Total playing time: 53:10

Preview 1

Extended info
Flac rip


Technical info
(IMG:http://metalarea.org/images/spectrogram/2017_Dec/6679d35f5c02fe933f626d8f0dde9145.png)
Input File: (03) [Laibach] Die Unschuld I.mp3
Channels : 2
Sample Rate : 44100
Precision : 16-bit
Duration : 00:02:44.26 = 7243734 samples = 12319.3 CDDA sectors
File Size : 6.57M
Bit Rate : 320k
Sample Encoding: MPEG audio (layer I, II or III)
Comments :
Title=Die Unschuld I
Artist=Laibach
Album=Also Sprach Zarathustra
Tracknumber=03
Year=2017



Register


Go to the top of the page
  Insert nick Quick quote
+Quote Post

Reply to this topicStart new topic
1 User(s) are reading this topic (1 Guests and 0 Anonymous Users)
0 Members:

 



- Lo-Fi Version Support form
Copyrights and abuse reports form
Time is now: 19th August 2018 - 08:58:57