Welcome Guest ( Log In | Register )

> И неформату есть предел.

Рэп/хип-хоп/шансон/поп удаляются. Для них есть свои порталы.

 
ОтветитьСоздать новую тему
> Distaste - Demo 2015 [demo] (2015), Straight Edge Hardcore (D5)
post Dec 11 2017, 09:02:20
Post #1

Мегаманьяк
***********
Group: Металариец
Posts: 1,533
Releases: 109
From: Omsk, Siberia
On Forums: 8 years 11 months
Thanks: 2320 time(s)
Russian Federation


(IMG:http://metalarea.org/images/audiocovers/2017_Dec/acov_tid299107_thumb.jpg)

*Artist: Distaste
*Album: Demo 2015 [demo]
*Year: 2015
*Genre: Straight Edge Hardcore
*Country: United States (IMG:http://metalarea.org/forum/style_images/flags/United%20States.png)
*Format: mp3@CBR320kbps
*Size: 19MB

Tracklist:
1. Intro 01:07
2. At The Cord 02:16
3. Swan Song 01:57
4. Innocence 02:31
******************************
Total playing time: 7:52



Extended info
по-моему, в стиле этой группы из Нью-Джерси есть что-то немного и от Beatdown...


Technical info
(IMG:http://metalarea.org/images/spectrogram/2017_Dec/03c9302ad8ee06e7aacb18df868c9de9.png)
Input File: 03 Swan Song.mp3
Channels : 2
Sample Rate : 44100
Precision : 16-bit
Duration : 00:01:57.67 = 5189071 samples = 8824.95 CDDA sectors
File Size : 4.88M
Bit Rate : 331k
Sample Encoding: MPEG audio (layer I, II or III)
Comments :
Title=Swan Song
Artist=Distaste
Album=Demo 2015
Tracknumber=3
Year=2015
Genre=Hardcore



Register
Вернуться к началу страницы
  Insert nick Quick quote
+Цитировать сообщение

ОтветитьСоздать новую тему
1 User(s) are reading this topic (1 Guests and 0 Anonymous Users)
0 Members:

 



- Lo-Fi Version Support form
Copyrights and abuse reports form
Time is now: 19th February 2018 - 15:06:52