Welcome Guest ( Log In | Register )

> И неформату есть предел.

Рэп/хип-хоп/шансон/поп удаляются. Для них есть свои порталы.

 
ОтветитьСоздать новую тему
> SpaceWaster - Purge With Purpose (2017), Grindcore/Hardcore
post Dec 11 2017, 13:43:31
Post #1

Serial Uploader
Group Icon
Group: V.I.P
Posts: 32,509
Releases: 30805
From: Lithuania
On Forums: 9 years 11 months
Thanks: 353707 time(s)
Lithuania


(IMG:http://metalarea.org/images/audiocovers/2017_Dec/acov_tid299116_thumb.jpg)

*Artist: SpaceWaster
*Album: Purge With Purpose
*Year: 2017
*Genre: Grindcore/Hardcore
*Country: United States (IMG:http://metalarea.org/forum/style_images/flags/United%20States.png)
*Format: mp3@CBR320kbps
*Size: 57MB

Tracklist:
01. Intro 00:56
02. Leave No Trace 03:42
03. Oil And Water 03:09
04. Inertia 02:27
05. Cell 01:38
06. Death Certificate For Democracy 02:43
07. Hold 03:09
08. Purge With Purpose 03:32
09. Upper Ground 05:23
******************************
Total playing time: 26:39




Technical info
(IMG:http://metalarea.org/images/spectrogram/2017_Dec/6ed654dd40d7c216c359cda30199d07f.png)
Input File: 02. Leave No Trace.mp3
Channels : 2
Sample Rate : 44100
Precision : 16-bit
Duration : 00:03:42.54 = 9813794 samples = 16690.1 CDDA sectors
File Size : 9.00M
Bit Rate : 324k
Sample Encoding: MPEG audio (layer I, II or III)
Comments :
Title=Leave No Trace
Artist=Spacewaster
Album=Purge with Purpose
Tracknumber=2/9
Year=2017
Genre=9
Discnumber=1/1



Register
Вернуться к началу страницы
  Insert nick Quick quote
+Цитировать сообщение

ОтветитьСоздать новую тему
1 User(s) are reading this topic (1 Guests and 0 Anonymous Users)
0 Members:

 



- Lo-Fi Version Support form
Copyrights and abuse reports form
Time is now: 25th May 2018 - 05:52:12