Welcome Guest ( Log In | Register )

> И неформату есть предел.

Рэп/хип-хоп/шансон/поп удаляются. Для них есть свои порталы.

> Stromstad - New Devoted Human (2017), Industrial
post Dec 11 2017, 20:15:05
Post #1

As Above, so Below
***********
Group: Металариец
Posts: 1,862
Releases: 17
On Forums: 8 years 11 months
Thanks: 3695 time(s)
Russian Federation


(IMG:http://metalarea.org/images/audiocovers/2017_Dec/acov_tid299125_thumb.jpg)

*Artist: Stromstad
*Album: New Devoted Human
*Year: 2017
*Genre: Industrial
*Country: Finland (IMG:http://metalarea.org/forum/style_images/flags/Finland.png)
*Format: mp3@CBR320kbps
*Size: 81MB

Tracklist:
1. Inherent Resurrection 04:18
2. Fever Wave Dream Function 04:06
3. Blood Consciousness 03:47
4. Nattsvermer 06:37
5. Reluctant Traveller (feat. Grutle Kjellson) 03:24
6. Exchanging Eyes 04:32
7. New Devoted Human 05:03
8. Kosto 04:27
******************************
Total playing time: 36:14



Extended info
Few names imply mind-bending, forward thinking heavy electronics like Finnish stalwarts STROM.ec, and with every release, they seem to further stretch the boundaries of what can be a pretty rigid genre, and navigate realms never before seen or heard. Similar things can be said of Norwegian atmospheric heavy weight and Malignant staple, Kristoffer Oustad, whose particular strain of dark ambient and post-industrial soundscapes are incredibly dynamic, at times surreal and cinematic, other times more driving and heavy, but all with a recognizable, highly emotive touch.
Featuring a guest appearance by Grutle Kjellson from the mighty Enslaved, mastering by Henrik Nordvargr Björkk, paintings by Jeff Klena and design by Alonso Urbanos.
2017. Malignant Records.


Technical info
(IMG:http://metalarea.org/images/spectrogram/2017_Dec/0e1f944b4d1f731994d3032739db8fbe.png)
Input File: 05 - Reluctant Traveller (feat. Grutle Kjellson).mp3
Channels : 2
Sample Rate : 44100
Precision : 16-bit
Duration : 00:03:24.10 = 9000590 samples = 15307.1 CDDA sectors
File Size : 8.73M
Bit Rate : 342k
Sample Encoding: MPEG audio (layer I, II or III)
Comments :
Title=Reluctant Traveller (feat. Grutle Kjellson)
Artist=Stromstad
Album=New Devoted Human
Tracknumber=05
Year=2017
Genre=Death Industrial/Dark Ambient



Register


Go to the top of the page
  Insert nick Quick quote
+Quote Post
 
Start new topic
Replies (1 - 1)
post Dec 11 2017, 22:47:50
Post #2

стазис эпидерсис
**************
Group: Металариец
Posts: 2,147
Releases: 0
On Forums: 2 years 9 months
Thanks: 1293 time(s)
Unknown


(IMG:style_emoticons/default/headcrab.png) (IMG:style_emoticons/default/20.gif)
Go to the top of the page
  Insert nick Quick quote
+Quote Post

Reply to this topicStart new topic
1 User(s) are reading this topic (1 Guests and 0 Anonymous Users)
0 Members:

 



- Lo-Fi Version Support form
Copyrights and abuse reports form
Time is now: 21st November 2018 - 21:21:00