Welcome Guest ( Log In | Register )

> Sorrowful Land - Where The Sullen Waters Flow [ep] (2017), Atmospheric Doom/Death Metal
post Dec 12 2017, 10:17:04
Post #1

Маньяк
**********
Group: Металариец
Posts: 1,049
Releases: 881
From: Новороссийск
On Forums: 8 years 8 months
Thanks: 16106 time(s)
Russian Federation


(IMG:https://metalarea.org/images/audiocovers/2017_Dec/acov_tid299139_thumb.jpg)

*Artist: Sorrowful Land
*Album: Where The Sullen Waters Flow [ep]
*Year: 2017
*Genre: Atmospheric Doom/Death Metal
*Country: Ukraine (IMG:https://metalarea.org/forum/style_images/flags/Ukraine.png)
*Format: mp3@CBR192kbps
*Size: 38MB

Tracklist:
01. As I Behold Them Once Again 10:43
02. Where The Sullen Waters Flow 09:35
03. The Night Is Darkening Around Me 07:27
******************************
Total playing time: 27:45


Preview 2

Technical info
(IMG:https://metalarea.org/images/spectrogram/2017_Dec/0090e1130679789487347bbd2e010812.png)
Input File: 01. As I Behold Them Once Again.mp3
Channels : 2
Sample Rate : 44100
Precision : 16-bit
Duration : 00:10:42.55 = 28336543 samples = 48191.4 CDDA sectors
File Size : 15.4M
Bit Rate : 192k
Sample Encoding: MPEG audio (layer I, II or III)
Comments :
Title=As I Behold Them Once Again
Artist=Sorrowful Land
Album=Where The Sullen Waters Flow
Tracknumber=01
Year=2017
Genre=Doom Metal



Register


Go to the top of the page
  Insert nick Quick quote
+Quote Post
 
Start new topic
Replies (1 - 7)
post Dec 12 2017, 18:25:20
Post #2

Шесть Литров
******
Group: Металариец
Posts: 551
Releases: 0
On Forums: 10 years 8 months
Thanks: 190 time(s)
Belarus


После шедеврального дебютного альбома, по качеству не уступающего Doom:VS, и такой провал.
Go to the top of the page
  Insert nick Quick quote
+Quote Post
post Dec 12 2017, 18:51:18
Post #3

Group: Подсевший
Posts: 41
Releases: 0
From: BY
On Forums: 10 years 3 months
Thanks: 7 time(s)
Belarus


Послушаем для начала предыдущий.
Go to the top of the page
  Insert nick Quick quote
+Quote Post
post Dec 12 2017, 20:55:24
Post #4

Group: Дух
Posts: 7
Releases: 0
On Forums: 2 years 1 month
Thanks: 7 time(s)
Russian Federation


еще зеркало может кому пригодится (IMG:style_emoticons/default/smile1.gif)
Register


Go to the top of the page
  Insert nick Quick quote
+Quote Post
post Dec 12 2017, 20:58:42
Post #5

Два Литра
**
Group: Завсегдатай
Posts: 102
Releases: 0
On Forums: 10 years 9 months
Thanks: 12 time(s)
Russian Federation


отличная музычка, Макс молодчага...


Thanks:
Go to the top of the page
  Insert nick Quick quote
+Quote Post
post Dec 14 2017, 11:21:54
Post #6

Necromancer
Group Icon
Group: Curation team
Posts: 10,996
Releases: 271
From: Зеленоград
On Forums: 13 years 3 months
Thanks: 8808 time(s)
Russian Federation


Великолепный EP. (IMG:style_emoticons/default/20.gif)
Go to the top of the page
  Insert nick Quick quote
+Quote Post
post Jan 21 2018, 13:00:23
Post #7

antithesis
**************
Group: Металариец
Posts: 2,932
Releases: 33
From: VRN
On Forums: 9 years 8 months
Thanks: 1777 time(s)
Russian Federation


достойный материал
Go to the top of the page
  Insert nick Quick quote
+Quote Post
post Jul 12 2019, 21:11:32
Post #8
BAN
Banned till
Mar 3 2020, 16:48:31



Register


Go to the top of the page
  Insert nick Quick quote
+Quote Post

Reply to this topicStart new topic
1 User(s) are reading this topic (1 Guests and 0 Anonymous Users)
0 Members:

 



- Lo-Fi Version Support form
Copyrights and abuse reports form
Time is now: 27th January 2020 - 03:25:54