Welcome Guest ( Log In | Register )

> Kloct - Healing (2017), Melodic Black Metal
post Dec 12 2017, 20:42:00
Post #1

Аннигилятор пивА
Group Icon
Group: V.I.P
Posts: 52,360
Releases: 16552
From: Koenigsberg - TILZIT
On Forums: 13 years 8 months
Thanks: 363842 time(s)
Russian Federation


(IMG:https://metalarea.org/images/audiocovers/2017_Dec/acov_tid299165_thumb.jpg)

*Artist: Kloct
*Album: Healing
*Year: 2017
*Genre: Melodic Black Metal
*Country: France (IMG:https://metalarea.org/forum/style_images/flags/France.png)
*Format: mp3@CBR320kbps
*Size: 107MB

Tracklist:
01. Mulhadara
02. Svadhistana
03. Manipura
04. Anahata
05. Vishuddha
06. Ajna
07. Sahasrara
08. Like a Second in the Continuum of Time
******************************
Total playing time: 46:29




Extended info
This album offers you 8 songs. Each of the seven first songs correspond to one of the 7 chakras we have within ourselves, starting form “Muladhara” (root chakra, entrance door of the energy) to the seventh chakra “Sahasrara” (crown chakra, the one allowing us to reach the highest level of consciousness and mindfulness). Each track is entitled with the name of a chakra and explains in a really simple way its function, how the opening of this chakra influences our life and what it could help us to reach. The 8th song is the conclusion of the album and convey a simple message : “the time we have to spend on earth is to short to be wasted, we must use it wisely to know who we are, to elevate our minds and spirit’’



Technical info
(IMG:https://metalarea.org/images/spectrogram/2017_Dec/e5bb62bdd1d3c9f67e4bd0367ec8ef6f.png)
Input File: KLOCT - HEALING - 04 ANAHATA.mp3
Channels : 2
Sample Rate : 44100
Precision : 16-bit
Duration : 00:04:58.42 = 13160498 samples = 22381.8 CDDA sectors
File Size : 12.1M
Bit Rate : 324k
Sample Encoding: MPEG audio (layer I, II or III)
Comments :
Title=ANAHATA
Artist=KLOCT
Album=HEALING
Tracknumber=4
Year=2017



Register


Go to the top of the page
  Insert nick Quick quote
+Quote Post
 
Start new topic
Replies (1 - 5)
post Dec 13 2017, 05:33:03
Post #2

Group: Подсевший
Posts: 13
Releases: 0
On Forums: 3 years 6 months
Thanks: 0 time(s)
Russian Federation


France
Go to the top of the page
  Insert nick Quick quote
+Quote Post
post Dec 13 2017, 23:24:59
Post #3

Маньяк
**********
Group: Металариец
Posts: 1,234
Releases: 44
From: Moscow
On Forums: 13 years 6 months
Thanks: 1034 time(s)
Russian Federation


Мне неожиданно понравилось, неплохо играют. У них вроде ещё два альбома есть, только не нашёл я их. (( Хотя, возможно, ничего интересного там нет - судя по их обложкам, типичный блэк.


Thanks:
(1) krotovich,
Go to the top of the page
  Insert nick Quick quote
+Quote Post
post Dec 14 2017, 10:18:26
Post #4

Правь статус, ####!111
**************
Group: Металариец
Posts: 2,819
Releases: 8
From: Dnipro
On Forums: 11 years 6 months
Thanks: 892 time(s)
Ukraine


ЦИТАТА(Paradayz @ Dec 14 2017, 00:24:59) *
Мне неожиданно понравилось, неплохо играют. У них вроде ещё два альбома есть, только не нашёл я их. (( Хотя, возможно, ничего интересного там нет - судя по их обложкам, типичный блэк.

А чё там искать то? Первый и второй альбомы на бэндкампе на шару скачать можно. Этот уже у него третий
Go to the top of the page
  Insert nick Quick quote
+Quote Post
post Apr 4 2018, 14:07:27
Post #5

Welder - master Wunderkerzen
***********
Group: Металариец
Posts: 1,547
Releases: 47
On Forums: 11 years 8 months
Thanks: 3498 time(s)
Russian Federation


14 года концерт уже 3 евра стоит (IMG:style_emoticons/default/fear.gif)
Go to the top of the page
  Insert nick Quick quote
+Quote Post
post Dec 31 2019, 00:07:03
Post #6

Шесть Литров
******
Group: Металариец
Posts: 512
Releases: 0
On Forums: 1 year 6 months
Thanks: 17 time(s)
Serbia


PLS REUPLOAD
Go to the top of the page
  Insert nick Quick quote
+Quote Post

Reply to this topicStart new topic
2 User(s) are reading this topic (2 Guests and 0 Anonymous Users)
0 Members:

 



- Lo-Fi Version Support form
Copyrights and abuse reports form
Time is now: 28th January 2020 - 07:59:43