Welcome Guest ( Log In | Register )

> Ruin - Plague Transmissions (Vol.1) [compilation] (2017), Death Metal (D13)
post Dec 14 2017, 12:11:51
Post #1

Serial Uploader
Group Icon
Group: V.I.P
Posts: 36,463
Releases: 34651
From: Lithuania
On Forums: 11 years 5 months
Thanks: 404829 time(s)
Lithuania


(IMG:https://metalarea.org/images/audiocovers/2017_Dec/acov_tid299220_thumb.jpg)

*Artist: Ruin
*Album: Plague Transmissions (Vol.1) [compilation]
*Year: 2017
*Genre: Death Metal
*Country: United States (IMG:https://metalarea.org/forum/style_images/flags/United%20States.png)
*Format: mp3@CBR320kbps
*Size: 126MB

Tracklist:
01. Perverted Lunacy
02. Massacre of Flesh and Bone
03. And Soon the Darkness
04. The Final Bloodbath
05. Putrid Is My Brain
06. The Bends
07. Haunted Asylum of Pain
08. Slow Death for a Perfect World
09. Warrior
10. Horizon Pestilence
11. A Foul Stench of Human Beings
12. Rotting Black Hole
13. Suffering Mind (Full of Maggots)
14. Becoming Disease
******************************
Total playing time: 53:49

(IMG:https://metalarea.org/images/youtube.png)

Technical info
(IMG:https://metalarea.org/images/spectrogram/2017_Dec/033472aa2b19ee27899f908ad3e0bd89.png)
Input File: 02. Massacre of Flesh and Bone.mp3
Channels : 2
Sample Rate : 44100
Precision : 16-bit
Duration : 00:02:18.46 = 6105954 samples = 10384.3 CDDA sectors
File Size : 5.77M
Bit Rate : 333k
Sample Encoding: MPEG audio (layer I, II or III)
Comments :
Title=Massacre of Flesh and Bone
Artist=Ruin
Album=Plague Transmissions (Vol.1)
Tracknumber=2/14
Year=2017



Register


Go to the top of the page
  Insert nick Quick quote
+Quote Post
 
Start new topic
Replies (1 - 3)
post Dec 15 2017, 05:27:52
Post #2

hearer & reader
**************
Group: Металариец
Posts: 8,197
Releases: 110
From: Moscow
On Forums: 12 years 2 months
Thanks: 7709 time(s)
Russian Federation


Это Ruin из Калифорнии - https://www.metal-archives.com/bands/Ruin/127704
И это сборник.
Альбом был недавно - Ruin - Drown In Blood (2017)
Go to the top of the page
  Insert nick Quick quote
+Quote Post
post Dec 15 2017, 08:21:35
Post #3

Аннигилятор пивА
Group Icon
Group: V.I.P
Posts: 52,358
Releases: 16555
From: Koenigsberg - TILZIT
On Forums: 13 years 5 months
Thanks: 363009 time(s)
Russian Federation


ЦИТАТА(AHBAnep @ Dec 15 2017, 04:27:52) *
И это сборник.
Альбом был недавно - Ruin - Drown In Blood (2017)

a compilation of Ruin's hard-to-get material from various Demos and split 7"s etc.
https://shop.klicktrack.com/519610
Go to the top of the page
  Insert nick Quick quote
+Quote Post
post Jul 22 2019, 09:40:09
Post #4

практически всеядное
****
Group: Металариец
Posts: 345
Releases: 0
On Forums: 10 years 7 months
Thanks: 185 time(s)
Russian Federation


Register
возвращаю


Thanks:
(1) artscald,
Go to the top of the page
  Insert nick Quick quote
+Quote Post

Reply to this topicStart new topic
1 User(s) are reading this topic (1 Guests and 0 Anonymous Users)
0 Members:

 



- Lo-Fi Version Support form
Copyrights and abuse reports form
Time is now: 19th November 2019 - 00:27:55