Welcome Guest ( Log In | Register )

 
ОтветитьСоздать новую тему
> Stahv - Stahv (2017), Doom/Post-Metal
post Dec 14 2017, 17:28:35
Post #1

Serial Uploader
Group Icon
Group: V.I.P
Posts: 32,509
Releases: 30802
From: Lithuania
On Forums: 9 years 11 months
Thanks: 353707 time(s)
Lithuania


(IMG:https://metalarea.org/images/audiocovers/2017_Dec/acov_tid299242_thumb.jpg)

*Artist: Stahv
*Album: Stahv
*Year: 2017
*Genre: Doom/Post-Metal
*Country: United States (IMG:https://metalarea.org/forum/style_images/flags/United%20States.png)
*Format: mp3@CBR320kbps
*Size: 73MB

Tracklist:
01. Jardín Infinito
02. The Test
03. Djinn Rumi
04. Forest Dweller
05. Benevolus
06. Preta Realm
07. Grüver
******************************
Total playing time: 30:33




Technical info
(IMG:https://metalarea.org/images/spectrogram/2017_Dec/a0c1a553e7b0c1d0bb23549d070c9192.png)
Input File: 02. The Test.mp3
Channels : 2
Sample Rate : 44100
Precision : 16-bit
Duration : 00:02:13.63 = 5893171 samples = 10022.4 CDDA sectors
File Size : 5.49M
Bit Rate : 329k
Sample Encoding: MPEG audio (layer I, II or III)
Comments :
Title=The Test
Artist=Stahv
Album=Stahv
Tracknumber=2/7
Year=2017
Discnumber=1/1



Register


Вернуться к началу страницы
  Insert nick Quick quote
+Цитировать сообщение

ОтветитьСоздать новую тему
1 User(s) are reading this topic (1 Guests and 0 Anonymous Users)
0 Members:

 



- Lo-Fi Version Support form
Copyrights and abuse reports form
Time is now: 25th May 2018 - 05:48:56