Welcome Guest ( Log In | Register )

> И неформату есть предел.

Рэп/хип-хоп/шансон/поп удаляются. Для них есть свои порталы.

 
Reply to this topicStart new topic
> Ancestral Voices - Yantra [ep] (2016), Ambient/Tribal/Techno/Experimental
post Dec 14 2017, 20:29:09
Post #1

ashes of yesterdays
**********
Group: Металариец
Posts: 1,056
Releases: 8
On Forums: 11 years 1 month
Thanks: 2647 time(s)
Unknown


(IMG:http://metalarea.org/images/audiocovers/2017_Dec/acov_tid299248_thumb.jpg)

*Artist: Ancestral Voices
*Album: Yantra [ep]
*Year: 2016
*Genre: Ambient/Tribal/Techno/Experimental
*Country: United Kingdom (IMG:http://metalarea.org/forum/style_images/flags/United%20Kingdom.png)
*Format: mp3@CBR320kbps
*Size: 62MB

Tracklist:
1. Yantra 7:49
2. Eiyani 6:59
3. Priests Of MU 6:39
4. Jadian Sun 6:04
******************************
Total playing time: 27:31



Technical info
(IMG:http://metalarea.org/images/spectrogram/2017_Dec/e9a45417c1209be280bf79c9f916e7f0.png)
Input File: 01 Yantra.flac
Channels : 2
Sample Rate : 44100
Precision : 16-bit
Duration : 00:07:49.62 = 20710129 samples = 35221.3 CDDA sectors
File Size : 36.1M
Bit Rate : 615k
Sample Encoding: 16-bit FLAC
Comments :
ALBUM=Yantra
ARTIST=Ancestral Voices
CATALOGNUMBER=HOROEX1
DATE=2016
GENRE=Dubstep
GENRE=Ambient
LABEL=Samurai Horo
MUSICBRAINZ_ALBUMID=ce62ccae-a0fa-4da2-83e6-10d4a69cabc9
MUSICBRAINZ_ALBUMSTATUS=Official
MUSICBRAINZ_ALBUMTYPE=EP
MUSICBRAINZ_ARTISTID=3ce1e01a-df79-44f1-904d-16a984465e7a
MUSICBRAINZ_RELEASEGROUPID=3a89944a-f30e-4dfa-8e74-625cff5c26ec
MUSICBRAINZ_TRACKID=59abe81c-b8f5-48a6-a27f-aeddc5e8147f
ORIGINAL RELEASE DATE=2016-12-09
ORGANIZATION=Horo
TITLE=Yantra
TRACKTOTAL=4
TRACKNUMBER=1



Register


Thanks:
Go to the top of the page
  Insert nick Quick quote
+Quote Post

Reply to this topicStart new topic
1 User(s) are reading this topic (1 Guests and 0 Anonymous Users)
0 Members:

 



- Lo-Fi Version Support form
Copyrights and abuse reports form
Time is now: 19th August 2018 - 02:27:59