Welcome Guest ( Log In | Register )

> И неформату есть предел.

Рэп/хип-хоп/шансон/поп удаляются. Для них есть свои порталы.

 
Reply to this topicStart new topic
> Ancestral Voices - Divination (2017), Ambient/Tribal/Techno/Experimental
post Dec 14 2017, 20:36:23
Post #1

ashes of yesterdays
**********
Group: Металариец
Posts: 1,056
Releases: 8
On Forums: 11 years 1 month
Thanks: 2647 time(s)
Unknown


(IMG:http://metalarea.org/images/audiocovers/2017_Dec/acov_tid299249_thumb.jpg)

*Artist: Ancestral Voices
*Album: Divination
*Year: 2017
*Genre: Ambient/Tribal/Techno/Experimental
*Country: United Kingdom (IMG:http://metalarea.org/forum/style_images/flags/United%20Kingdom.png)
*Format: mp3@CBR320kbps
*Size: 190MB

Tracklist:
1. Divination 11:17
2. Galdr 06:45
3. Geomancy 06:46
4. Rites 05:11
5. Transcendence 10:48
6. Forn Sidr 06:23
7. Yggia 07:38
8. Futhark 04:42
9. Hieratic 05:55
10. Cleromancy 05:49
11. Alu 04:53
12. Inscriptions 05:15
13. Revelation 03:02
******************************
Total playing time: 1:24:24



Technical info
(IMG:http://metalarea.org/images/spectrogram/2017_Dec/e5d75ae45cef7f041a6578c2a56f5501.png)
Input File: 01. Divination.mp3
Channels : 2
Sample Rate : 44100
Precision : 16-bit
Duration : 00:11:17.29 = 29868357 samples = 50796.5 CDDA sectors
File Size : 27.4M
Bit Rate : 324k
Sample Encoding: MPEG audio (layer I, II or III)
Comments :
Title=Divination
Artist=Ancestral Voices
Album=Divination
Tracknumber=1
Year=2017



Register


Thanks:
(1) Corpuscul,
Go to the top of the page
  Insert nick Quick quote
+Quote Post

Reply to this topicStart new topic
1 User(s) are reading this topic (1 Guests and 0 Anonymous Users)
0 Members:

 



- Lo-Fi Version Support form
Copyrights and abuse reports form
Time is now: 19th August 2018 - 08:59:19