Welcome Guest ( Log In | Register )

> И неформату есть предел.

Рэп/хип-хоп/шансон/поп удаляются. Для них есть свои порталы.

> Lussuria - Standstill (2017), Dark Ambient/Industrial/Experimental
post Dec 14 2017, 21:00:25
Post #1

ashes of yesterdays
**********
Group: Металариец
Posts: 1,056
Releases: 8
On Forums: 11 years 5 months
Thanks: 2660 time(s)
Unknown


(IMG:http://metalarea.org/images/audiocovers/2017_Dec/acov_tid299250_thumb.jpg)

*Artist: Lussuria
*Album: Standstill
*Year: 2017
*Genre: Dark Ambient/Industrial/Experimental
*Country: United States (IMG:http://metalarea.org/forum/style_images/flags/United%20States.png)
*Format: mp3@CBR320kbps
*Size: 509MB

Tracklist:
1. Tree Of Marble 6:59
2. Mirror Stage 7:08
3. Aegri Somnia 7:36
4. The Fourth Cardinal Weighted Down 8:04
5. Viaticum, Spear Dance, Companion Note 14:02
6. Acanthus Leaves, Of Rage And Denial, Lashes 13:58
7. To Pale Shelter 14:24
8. Slow Scorch 4:42
9. Dust Will Blow 4:03
10. Stolen Door 4:54
11. Laughter Of The Heights 4:49
12. Silent Replies Silent Questions 4:54
13. Rosary Glide 4:53
14. Natura Liberari I-III 13:36
15. Twilight Red 9:42
16. Midnight Office 5:14
17. Spiritual Bypass 4:24
18. The Face Of Two 9:33
19. Cliff In The Red Tidal Wave 14:55
20. Your Voice To Arise As Incense 14:44
21. Lambarene 6:19
22. Archaic Revival 5:04
23. Sitting Room 3:17
24. The Waiting 4:52
25. Postmortem Gaze 4:15
26. In The Flashing Whites Of Eyes 4:19
27. Deconsecration 3:46
28. Fogbound 9:09
29. De Svarta Porten 14:07
******************************
Total playing time: 3:47:42

Preview 1

Extended info
Viaticum, Spear Dance, Companion Note (IMG:style_emoticons/default/20.gif)


Technical info
(IMG:http://metalarea.org/images/spectrogram/2017_Dec/ddd44ae9531be530c0d696aefa261312.png)
Input File: 01 - Tree of Marble.mp3
Channels : 2
Sample Rate : 44100
Precision : 16-bit
Duration : 00:06:59.75 = 18510887 samples = 31481.1 CDDA sectors
File Size : 16.9M
Bit Rate : 321k
Sample Encoding: MPEG audio (layer I, II or III)
Comments :
Title=Tree of Marble
Artist=Lussuria
Album=Standstill
Tracknumber=1
Year=2017
Genre=Electronic



Register


Thanks:
Go to the top of the page
  Insert nick Quick quote
+Quote Post
 
Start new topic
Replies (1 - 1)
post Apr 21 2018, 08:26:06
Post #2

Два Литра
**
Group: Завсегдатай
Posts: 156
Releases: 0
From: Чуркестан
On Forums: 11 years 2 months
Thanks: 13 time(s)
Uzbekistan


Клубняк для поклонников эмбиента, как мне показалось.
Go to the top of the page
  Insert nick Quick quote
+Quote Post

Reply to this topicStart new topic
1 User(s) are reading this topic (1 Guests and 0 Anonymous Users)
0 Members:

 



- Lo-Fi Version Support form
Copyrights and abuse reports form
Time is now: 21st November 2018 - 13:20:39