Welcome Guest ( Log In | Register )

> Forum rules / Правила раздела

Here go releases which can't go to New releases forums due lack of information, stolen links or incorrect data and just founded in other sites links with minimum info. Reissue of this releases through Add release form with added/corrected data, info and own links highly welcomed.

Сюда уходят релизы, не пропущенные в основные релизные форумы по причинам отсутствия, недостаточности или неверности/некорректности сопровождающей информации, содержащие ссылки, указывающие на файлы, залитые не автором темы, а так же просто найденные где-то ссылки с минимумом информации. Переоформление тем отсюда через форму Добавления релиза с перезаливкой ссылок крайне приветствуется.

> Harakiri For The Sky - You Are The Scars [single] (2017), Post-Black Metal (D6)
post Dec 17 2017, 16:37:07
Post #1

Аннигилятор пивА
Group Icon
Group: V.I.P
Posts: 52,356
Releases: 16556
From: Koenigsberg - TILZIT
On Forums: 12 years 11 months
Thanks: 360777 time(s)
Russian Federation


(IMG:https://metalarea.org/images/audiocovers/2017_Dec/acov_tid299359_thumb.jpg)

*Artist: Harakiri For The Sky
*Album: You Are The Scars [single]
*Year: 2017
*Genre: Post-Black Metal
*Country: Austria (IMG:https://metalarea.org/forum/style_images/flags/Austria.png)
*Format: mp3@CBR320kbps
*Size: 24MB

Tracklist:
1. You Are The Scars 10:36
******************************
Total playing time: 10:36




Extended info


Technical info
(IMG:https://metalarea.org/images/spectrogram/2017_Dec/02dbfb060215d84cdfba5a05f7c364cf.png)
Input File: 01. You Are The Scars.mp3
Channels : 2
Sample Rate : 44100
Precision : 16-bit
Duration : 00:10:36.41 = 28065461 samples = 47730.4 CDDA sectors
File Size : 25.5M
Bit Rate : 320k
Sample Encoding: MPEG audio (layer I, II or III)
Comments :
Title=You Are The Scars
Artist=Harakiri For The Sky
Album=You Are The Scars
Tracknumber=1
Year=2017



Register


Go to the top of the page
  Insert nick Quick quote
+Quote Post
 
Start new topic
Replies (1 - 2)
post Dec 17 2017, 17:29:07
Post #2

Аннигилятор пивА
Group Icon
Group: V.I.P
Posts: 52,356
Releases: 16556
From: Koenigsberg - TILZIT
On Forums: 12 years 11 months
Thanks: 360777 time(s)
Russian Federation


MIRROR
Register


Go to the top of the page
  Insert nick Quick quote
+Quote Post
post Dec 14 2018, 16:59:45
Post #3

Пять Литров
*****
Group: Металариец
Posts: 400
Releases: 0
On Forums: 2 years 10 months
Thanks: 27 time(s)
Unknown


Good! I like it. (IMG:style_emoticons/default/20.gif)
Go to the top of the page
  Insert nick Quick quote
+Quote Post

Reply to this topicStart new topic
2 User(s) are reading this topic (2 Guests and 0 Anonymous Users)
0 Members:

 



- Lo-Fi Version Support form
Copyrights and abuse reports form
Time is now: 26th May 2019 - 12:18:13