Welcome Guest ( Log In | Register )

> И неформату есть предел.

Рэп/хип-хоп/шансон/поп удаляются. Для них есть свои порталы.

 
Reply to this topicStart new topic
> Inade - Aldebaran Revisited 2016 [live] (2017), Dark Ambient, Industrial (D11)
post Dec 18 2017, 14:23:47
Post #1

Девять Литров
*********
Group: Металариец
Posts: 999
Releases: 371
On Forums: 8 years 2 days
Thanks: 8269 time(s)
North Korea


(IMG:http://metalarea.org/images/audiocovers/2017_Dec/acov_tid299380_thumb.jpg)

*Artist: Inade
*Album: Aldebaran Revisited 2016 [live]
*Year: 2017
*Genre: Dark Ambient, Industrial
*Country: Germany (IMG:http://metalarea.org/forum/style_images/flags/Germany.png)
*Format: mp3@CBR320kbps
*Size: 89MB

Tracklist:
1. The Beginning 07:10
2. Signal 06:12
3. Dimension 07:08
4. Earth 04:14
5. Conquest 07:14
6. Separation 03:45
7. The End 03:08
******************************
Total playing time: 38:51



Extended info
Accompanying the Aldebaran re-edition this release is based on the Aldebaran 20th anniversary concert in Paris (9th of September 2016). Recorded during the Autumn Equinox 2016 using the backing tapes of this event, this is a beautiful deep space soundtrack transferring the original theme into a live recording environment.


Technical info
(IMG:http://metalarea.org/images/spectrogram/2017_Dec/5f1d9e349ca783093ebcd94c0c64c379.png)
Input File: 07 The End.mp3
Channels : 2
Sample Rate : 44100
Precision : 16-bit
Duration : 00:03:08.24 = 8301252 samples = 14117.8 CDDA sectors
File Size : 7.53M
Bit Rate : 320k
Sample Encoding: MPEG audio (layer I, II or III)
Comments :
Title=The End
Artist=INADE
Album=Aldebaran Revisited 2016
Tracknumber=7
Year=2017



Register


Go to the top of the page
  Insert nick Quick quote
+Quote Post

Reply to this topicStart new topic
1 User(s) are reading this topic (1 Guests and 0 Anonymous Users)
0 Members:

 



- Lo-Fi Version Support form
Copyrights and abuse reports form
Time is now: 21st November 2018 - 13:00:20