Welcome Guest ( Log In | Register )

> Svrm - Останнє Сонце [ep] (2017), Atmospheric Black Metal (D6)
post Dec 18 2017, 17:17:47
Post #1

Маньяк
**********
Group: Металариец
Posts: 1,419
Releases: 1207
From: Одесса
On Forums: 10 years 4 months
Thanks: 9412 time(s)
Ukraine


(IMG:http://metalarea.org/images/audiocovers/2017_Dec/acov_tid299385_thumb.jpg)

*Artist: Svrm
*Album: Останнє Сонце [ep]
*Year: 2017
*Genre: Atmospheric Black Metal
*Country: Ukraine (IMG:http://metalarea.org/forum/style_images/flags/Ukraine.png)
*Format: mp3@CBR320kbps
*Size: 31MB

Tracklist:
1. Останнє Сонце 04:04
2. Всіх безумних щастя 03:38
3. Вмерти 05:00
******************************
Total playing time: 12:42



Extended info
Line - up:

С. - Everything (Life Is Hell, ex-Necrotic Trust, Trumna, ex-Заводь, ex-Malencontre)


Technical info
(IMG:http://metalarea.org/images/spectrogram/2017_Dec/7ac675869607bc1ff97397310cb94fa9.png)
Input File: 03. Вмерти.mp3
Channels : 2
Sample Rate : 48000
Precision : 16-bit
Duration : 00:05:00.39 = 14418576 samples ~ 22529 CDDA sectors
File Size : 12.1M
Bit Rate : 322k
Sample Encoding: MPEG audio (layer I, II or III)
Comments :
Title=Вмерти
Artist=Svrm
Album=Останнє Сонце (EP)
Tracknumber=3
Year=2017
Genre=Atmospheric Black Metal



Register


Go to the top of the page
  Insert nick Quick quote
+Quote Post
 
Start new topic
Replies (1 - 7)
post Dec 18 2017, 18:35:27
Post #2

i listen to black metal
**************
Group: Металариец
Posts: 2,201
Releases: 128
From: Москва-Лианозово
On Forums: 11 years 10 months
Thanks: 2018 time(s)
Russian Federation


так себе...
Go to the top of the page
  Insert nick Quick quote
+Quote Post
post Dec 18 2017, 21:48:59
Post #3

Шесть Литров
******
Group: Металариец
Posts: 587
Releases: 0
From: Черкассы
On Forums: 6 years 10 months
Thanks: 80 time(s)
Ukraine


"Жырный" (IMG:style_emoticons/default/spitggis0.gif) Post-Black Metal (IMG:style_emoticons/default/smile3.gif)
Go to the top of the page
  Insert nick Quick quote
+Quote Post
post Dec 18 2017, 22:11:56
Post #4

Group: Подсевший
Posts: 33
Releases: 1
On Forums: 5 years 10 months
Thanks: 22 time(s)
Ukraine


Спасибо! Не плохо
Go to the top of the page
  Insert nick Quick quote
+Quote Post
post Dec 19 2017, 07:14:50
Post #5

Маньяк
**********
Group: Металариец
Posts: 1,126
Releases: 0
From: Беларусь
On Forums: 10 years 9 months
Thanks: 405 time(s)
Russian Federation


ЦИТАТА(Victim of fate @ Dec 18 2017, 20:35:27) *
так себе...

Очень мощно!


Thanks:
(1) krotovich,
Go to the top of the page
  Insert nick Quick quote
+Quote Post
post Dec 19 2017, 12:30:22
Post #6

Три Литра
***
Group: Завсегдатай
Posts: 278
Releases: 1
On Forums: 1 year 4 months
Thanks: 108 time(s)
Russian Federation


вроде и хорошо пилят, но не хватает какой-то "фишки" или концептуальности
а так, епшка за епшкой, чего-то серьёзно-показательное выдать бы им

P.S. а, ну он один, не суть


Thanks:
(1) russ777,
Go to the top of the page
  Insert nick Quick quote
+Quote Post
post Dec 20 2017, 09:49:35
Post #7

Четыре Литра
****
Group: Металариец
Posts: 354
Releases: 0
From: South Of Heaven
On Forums: 11 years 2 months
Thanks: 120 time(s)
Ukraine


Согласен с предыдущим оратором (IMG:style_emoticons/default/smile1.gif)
Шо-та вообще никакая ер-шка.
Go to the top of the page
  Insert nick Quick quote
+Quote Post
post Jul 11 2018, 12:14:22
Post #8

добрый мизантроп
***********
Group: Металариец
Posts: 1,518
Releases: 0
From: Минск
On Forums: 7 years 11 months
Thanks: 451 time(s)
Madagascar


Вообще не согласен с предыдущим оратором, офигенная епишка.
Go to the top of the page
  Insert nick Quick quote
+Quote Post

Reply to this topicStart new topic
1 User(s) are reading this topic (1 Guests and 0 Anonymous Users)
0 Members:

 



- Lo-Fi Version Support form
Copyrights and abuse reports form
Time is now: 22nd October 2018 - 14:54:59